Джеки и Райан | Jackie & Ryan ( Эми Канаан Манн | Ami Canaan Man) [2014, драма, WEB-DLRip]

Ответить на тему
 

Beka999 ®

Стаж: 3 года 9 месяцев

Сообщений: 15

Симпатии: 13

- -«Sometimes they stay. Sometimes they go»- Год выпуска: 2014
Страна: США
Жанр: драма
Продолжительность: 01:30:57
Перевод: Профессиональный [многоголосый]
Субтитры: Нет -Режиссер: Эми Канаан Манн / Ami Canaan Mann
Сценарий: Эми Канаан Манн
Продюсер: Молли Хэсселл, Джон Дженкс, Эми Канаан Манн
Композитор: -
Худжник: Дайан Миллетт, Мона Мэй, Брайан Лайвз
Оператор: Дуан Мэнуиллер
Монтаж: Лорен Коннелли, Мако Камицуна--В главных ролях: Кэтрин Хайгл, Бен Барнс, Клеа ДюВалл, Эмили Элин Линд, Шерил Ли, Нэйтан Стивенс, Райан Бингхэм, Челси Гудвин, Джеффри Хэнсон, Аллан Гров
Описание: История о бродяге, который пытается стать успешным музыкантом, и о матери-одиночке, которая борется за право опеки над своей дочерью. Отношения, складывающиеся между ними, могут изменить их жизни навсегда…-- --Премьера (мир): 30 августа 2014-Рейтинг MPAA: детям до 13 лет просмотр не желателен--Качество: WEB-DLRip
Формат: AVI
Видео кодек: XviD
Аудио кодеk: AC3
Видео: XviD 720x304, 23.976 fps, 1 952 kb/s
Аудио: AC3, 48.0 KHz, Russian, 192 kb/s (2 ch)
-

MediaInfo

General
Complete name                  : D:\Downloads\Dzheki.i.Rajn.2015.P.WEBDLRip.avi
Format                         : AVI
Format/Info                    : Audio Video Interleave
File size                      : 1.37 GiB
Duration                       : 1h 30mn
Overall bit rate               : 2 154 Kbps
Writing application            : VirtualDubMod 1.5.10.2 (build 2540/release)
Writing library                : VirtualDubMod build 2540/release
Video
ID                             : 0
Format                         : MPEG-4 Visual
Format profile                 : Advanced [email protected]
Format settings, BVOP          : 2
Format settings, QPel          : No
Format settings, GMC           : No warppoints
Format settings, Matrix        : Default (MPEG)
Codec ID                       : XVID
Codec ID/Hint                  : XviD
Duration                       : 1h 30mn
Bit rate                       : 1 952 Kbps
Width                          : 720 pixels
Height                         : 304 pixels
Display aspect ratio           : 2.35:1
Frame rate                     : 23.976 fps
Color space                    : YUV
Chroma subsampling             : 4:2:0
Bit depth                      : 8 bits
Scan type                      : Progressive
Compression mode               : Lossy
Bits/(Pixel*Frame)             : 0.372
Stream size                    : 1.24 GiB (91%)
Writing library                : XviD 1.2.1 (UTC 2008-12-04)
Audio
ID                             : 1
Format                         : AC-3
Format/Info                    : Audio Coding 3
Mode extension                 : CM (complete main)
Format settings, Endianness    : Big
Codec ID                       : 2000
Duration                       : 1h 30mn
Bit rate mode                  : Constant
Bit rate                       : 192 Kbps
Channel(s)                     : 2 channels
Channel positions              : Front: L R
Sampling rate                  : 48.0 KHz
Bit depth                      : 16 bits
Compression mode               : Lossy
Stream size                    : 125 MiB (9%)
Alignment                      : Split accross interleaves
Interleave, duration           : 42 ms (1.00 video frame)
Interleave, preload duration   : 500 ms

Скриншоты







Последний раз редактировалось: Beka999 (2015-08-18 12:52), всего редактировалось 1 раз

Создавать темы 17-Авг-2015 20:10

[Профиль]  [ЛС] 

Топик был перенесен из форума Фильмы за 2015 в форум Фильмы за 2014
mp1988

Создавать темы 18-Авг-2015 12:53

 
Показать сообщения:    
Ответить на тему

Текущее время: 23-Авг 14:49

Часовой пояс: UTC + 5



Вы не можете начинать темы
Вы не можете отвечать на сообщения
Вы не можете редактировать свои сообщения
Вы не можете удалять свои сообщения
Вы не можете голосовать в опросах
Вы не можете прикреплять файлы к сообщениям
Вы не можете скачивать файлы