Дыра / Nozoki Ana / A Peep Hole [OVA] [1 из 1] [Без хардсаба] [RUS(int), JAP+SUB] [2013 г., комедия, романтика, этти, эротика, BDRip] [720p]

Ответить на тему
 

Razrushitel ®

Стаж: 4 года 4 месяца

Сообщений: 148

Симпатии: 42

Дыра / Nozoki Ana / A Peep Hole
Sexy Extended Edition
- Страна: Япония
Год выпуска: 2013
Премьера: 28.02.2013
Жанр: комедия, романтика, этти, эротика
Тип: OVA (1 эп.), 56 мин.-Режиссер: Нисидзима Кацухико
Автор оригинала: Хонна Вако
Студия: Studio Fantasia-Описание: Кидо Тацухико переехал в Токио, дабы начать новую, самостоятельную жизнь студента Технической Школы. У Кидо есть талант к рисованию, но он не стремится стать великим художником. Он просто жаждет вкусить взрослой жизни в максимальной удаленности от родительского очага. В своей небольшой, съемной квартирке Кидо находит загадочное отверстие в стене, в котором можно было видеть комнату девушки по соседству. В попытках предупредить соседку о строительном недочете, способном поставить крест на интимной жизни обоих, Кидо отправляется к ней для серьезного разговора о косметическом ремонте стены. Серьезного разговора не получилось, так как Икуно Эмиру (именно так звали очаровательную красотку) была прекрасно осведомлена о дыре и открыто предложила главному герою взаимное подглядывание друг за другом. Ошалев от натиска юной вуайеристки, которая умело шантажировала его двухсмыленными снимками, Кидо вынужден был пойти у нее на поводу. С этого дня Кидо Тацухико начинает постигать все тонкости и прелести вуайеризма…--Информационные ссылки: Официальный сайт || AniDB || World Art || MyAnimeList--MyAnimeList.NET: 6.66 (scored by 8711 users)
Ranked: #4377--Качество: BDRip
Encode: Beatrice-Raws || Re-encoded: Razrushitel
Формат: mkv || Тип видео: без хардсаба
Видео: x264 (Hi10p), 1280x720, ~500 Kbps, 23.976 fps
Аудио #1: RUS, AC3, 48000Hz, ~128 Kbps, 2ch (в составе контейнера)
Озвучка: трёхголосая от Nutbar & Mosa & Акварелька
Аудио #2: JAP, AC3, 48000Hz, ~128 Kbps, 2ch (в составе контейнера)
Субтитры #1: русские (надписи) - DJATOM (ass, в составе контейнера, по умолчанию)
Субтитры #2: русские (полные) - Mixalbl4, Almedar & Yupi (ass, в составе контейнера)
-

Справка

Бонус к эксклюзивному ограниченному изданию тринадцатого тома манги.

Дополнительная информация

1. Экранизация сия ограниченно охватывает события 1-21 глав манги-первоисточника.
2. Скриншоты практически рандомны, а потому впечатление от них обманчиво и ОВА-шка сия кишит похотью и развратом чуть более, чем на половину. Не переходя, впрочем, хентайной грани.
3. Sexy Extended Edition - вышедшая на BD версия, коя длиннее первичной DVD версии на чуть более, чем 13 минут.

Скриншоты

Отличия

http://tas-ix.net/viewtopic.php?t=91399 - меньший размер файла

Подробные тех. данные

Общее
Уникальный идентификатор                 : 186618718507400729806178429880693027625 (0x8C657533682CC737B801C5CE7A7DF329)
Полное имя                               : E:\*****\Nozoki Ana - OVA [Hi 10] [BD 720p].mkv
Формат                                   : Matroska
Версия формата                           : Version 2
Размер файла                             : 312 Мбайт
Продолжительность                        : 55 м. 59 с.
Общий поток                              : 778 Кбит/сек
Дата кодирования                         : UTC 2015-07-01 09:48:56
Программа кодирования                    : mkvmerge v7.7.0 ('Six Voices') 32bit built on Feb 28 2015 23:23:00
Библиотека кодирования                   : libebml v1.3.1 + libmatroska v1.4.2
_STATISTICS_WRITING_APP                  : mkvmerge v7.7.0 ('Six Voices') 32bit built on Feb 28 2015 23:23:00
_STATISTICS_WRITING_DATE_UTC             : 2015-07-01 09:48:56
_STATISTICS_TAGS                         : BPS DURATION NUMBER_OF_FRAMES NUMBER_OF_BYTES
DURATION                                 : 00:54:05.970000000
NUMBER_OF_FRAMES                         : 881
NUMBER_OF_BYTES                          : 79400
Видео
Идентификатор                            : 1
Формат                                   : AVC
Формат/Информация                        : Advanced Video Codec
Профиль формата                          : High 10@L3.1
Параметр CABAC формата                   : Да
Параметр ReFrames формата                : 4 кадра
Идентификатор кодека                     : V_MPEG4/ISO/AVC
Продолжительность                        : 55 м. 59 с.
Битрейт                                  : 507 Кбит/сек
Ширина                                   : 1280 пикселей
Высота                                   : 720 пикселей
Соотношение сторон                       : 16:9
Режим частоты кадров                     : Постоянный
Частота кадров                           : 23,976 кадра/сек
Цветовое пространство                    : YUV
Субдискретизация насыщенности            : 4:2:0
Битовая глубина                          : 10 бит
Тип развёртки                            : Прогрессивная
Бит/(Пиксели*Кадры)                      : 0.023
Размер потока                            : 203 Мбайт (65%)
Заголовок                                : Nozoki Ana (Sexy Extended Version) OVA
Библиотека кодирования                   : x264 core 146 r2538 121396c
Настройки программы                      : cabac=1 / ref=3 / deblock=1:0:0 / analyse=0x3:0x113 / me=hex / subme=7 / psy=1 / psy_rd=1.00:0.00 / mixed_ref=1 / me_range=16 / chroma_me=1 / trellis=1 / 8x8dct=1 / cqm=0 / deadzone=21,11 / fast_pskip=1 / chroma_qp_offset=-2 / threads=3 / lookahead_threads=1 / sliced_threads=0 / nr=0 / decimate=1 / interlaced=0 / bluray_compat=0 / constrained_intra=0 / bframes=3 / b_pyramid=2 / b_adapt=1 / b_bias=0 / direct=1 / weightb=1 / open_gop=0 / weightp=2 / keyint=240 / keyint_min=23 / scenecut=40 / intra_refresh=0 / rc_lookahead=40 / rc=crf / mbtree=1 / crf=23.0 / qcomp=0.60 / qpmin=0 / qpmax=81 / qpstep=4 / ip_ratio=1.40 / aq=1:1.00
Default                                  : Да
Forced                                   : Нет
Аудио #1
Идентификатор                            : 2
Формат                                   : AC-3
Формат/Информация                        : Audio Coding 3
Расширение режима                        : CM (complete main)
Параметр Endianness формата              : Big
Идентификатор кодека                     : A_AC3
Продолжительность                        : 55 м. 59 с.
Вид битрейта                             : Постоянный
Битрейт                                  : 128 Кбит/сек
Каналы                                   : 2 канала
Расположение каналов                     : Front: L R
Частота                                  : 48,0 КГц
Битовая глубина                          : 16 бит
Метод сжатия                             : С потерями
Размер потока                            : 51,3 Мбайт (16%)
Заголовок                                : Nutbar, Mosa & Aквapелькa | AniFilm
Язык                                     : Russian
Default                                  : Да
Forced                                   : Нет
Аудио #2
Идентификатор                            : 3
Формат                                   : AC-3
Формат/Информация                        : Audio Coding 3
Расширение режима                        : CM (complete main)
Параметр Endianness формата              : Big
Идентификатор кодека                     : A_AC3
Продолжительность                        : 55 м. 59 с.
Вид битрейта                             : Постоянный
Битрейт                                  : 128 Кбит/сек
Каналы                                   : 2 канала
Расположение каналов                     : Front: L R
Частота                                  : 48,0 КГц
Битовая глубина                          : 16 бит
Метод сжатия                             : С потерями
Размер потока                            : 51,3 Мбайт (16%)
Язык                                     : Japanese
Default                                  : Нет
Forced                                   : Нет
Текст #1
Идентификатор                            : 4
Формат                                   : ASS
Идентификатор кодека                     : S_TEXT/ASS
Идентификатор кодека/Информация          : Advanced Sub Station Alpha
Метод сжатия                             : Без потерь
Заголовок                                : Signs [DJATOM]
Язык                                     : Russian
Default                                  : Да
Forced                                   : Нет
Текст #2
Идентификатор                            : 5
Формат                                   : ASS
Идентификатор кодека                     : S_TEXT/ASS
Идентификатор кодека/Информация          : Advanced Sub Station Alpha
Метод сжатия                             : Без потерь
Заголовок                                : Full Sub [Mixalbl4, Almedar & Yupi]
Язык                                     : Russian
Default                                  : Нет
Forced                                   : Нет
Меню
00:00:00.000                             : en:Emiru Ikuno
00:15:19.752                             : en:Invitation
00:30:51.474                             : en:Shouko-Sensei
00:44:03.224                             : en:It's turning me on
00:54:19.256                             : en:Ending

Создавать темы 18-Авг-2015 04:28

[Профиль]  [ЛС] 

Alex_38

Стаж: 5 лет 7 месяцев

Сообщений: 336

Симпатии: 37

947604

Отличия

http://tas-ix.net/viewtopic.php?t=91399 - меньший размер файла
Я бы за подобное отличие поставил "поглощено" этой раздаче .-.

Создавать темы 18-Авг-2015 16:17

[Профиль]  [ЛС] 

Razrushitel ®

Стаж: 4 года 4 месяца

Сообщений: 148

Симпатии: 42

Alex_38, ? А чё так? Кому нужна ОВАшка в ~2,5 ГБ?) И я другие отличия не заметил чтоб их приписать...

Создавать темы 18-Авг-2015 17:00

[Профиль]  [ЛС] 

LikeSmile

Стаж: 4 года 5 месяцев

Сообщений: 298

Симпатии: 48

ОВАшка не "ок", лучше мангу почитать.
хотя концовка в манге
просто упртая

Создавать темы 18-Авг-2015 17:04

[Профиль]  [ЛС] 

Razrushitel ®

Стаж: 4 года 4 месяца

Сообщений: 148

Симпатии: 42

LikeSmile, Манги нет) обходимся ОВАшкой) если зарелизишь прочитаемс :D

Создавать темы 18-Авг-2015 17:05

[Профиль]  [ЛС] 

daniellya

Стаж: 5 лет 6 месяцев

Сообщений: 338

Симпатии: 29

Смайл, дай мангу, ага, хоть на хламообменник :D

Создавать темы 18-Авг-2015 19:14

[Профиль]  [ЛС] 

LikeSmile

Стаж: 4 года 5 месяцев

Сообщений: 298

Симпатии: 48

Shigayev.Rustam.1997, daniellya, не думаю, что ее сюда можно

Комментарий от G@mbit


Правильно думаете, манга хоть и довольно интересная, но все-таки подпадает под категорию 18+

Создавать темы 18-Авг-2015 20:58

[Профиль]  [ЛС] 

Razrushitel ®

Стаж: 4 года 4 месяца

Сообщений: 148

Симпатии: 42

LikeSmile, Скинь ссылки со своего сайта ;) мы никому не скажем (^_~)-
Комментарий от G@mbit
Правильно думаете, манга хоть и довольно интересная, но все-таки подпадает под категорию 18+
Как по мне) так везде где есть жанр "эротика" это 18+
Дал поиск на это слово) поисковик выдал 31 результатов :D
-UPD. G@mbit, Понятно)

Комментарий от G@mbit


Так-то, оно так, но уж больно откровенная манга, даже для эротики.


Последний раз редактировалось: Razrushitel (2015-08-19 14:15), всего редактировалось 1 раз

Создавать темы 18-Авг-2015 21:33

[Профиль]  [ЛС] 

Alex_38

Стаж: 5 лет 7 месяцев

Сообщений: 336

Симпатии: 37

Shigayev.Rustam.1997, размер оправдывается продолжительностью) Дело не в отличиях, будь это санрайз, былоб "поглощено" всё равно) хД (мы ведь сторонники качества)

Создавать темы 19-Авг-2015 04:38

[Профиль]  [ЛС] 
Показать сообщения:    
Ответить на тему

Текущее время: 23-Окт 09:30

Часовой пояс: UTC + 5



Вы не можете начинать темы
Вы не можете отвечать на сообщения
Вы не можете редактировать свои сообщения
Вы не можете удалять свои сообщения
Вы не можете голосовать в опросах
Вы не можете прикреплять файлы к сообщениям
Вы не можете скачивать файлы