Крот / Сезон: 1 и 2 / Серии: 24 из 24 (Эрнест Ясан) [2001-2002, Драма, криминал, DVDRip]

Ответить на тему
 

Сергей74 ®

Стаж: 2 года 6 месяцев

Сообщений: 211

Симпатии: 293

Крот
Год выпуска: 2001-2002
Производство: Россия, Макдос
Жанр: Драма, криминал
Продолжительность: 24 x ~ 00:51:00
Режиссёр: Эрнест Ясан
В ролях: Павел Новиков, Алексей Осьминин, Сергей Щербак, Дмитрий Нагиев, Александр Строев, Елена Попова, Борис Соколов, Ксения Назарова, Владимир Богданов, Андрей Ургант, Виктор Смирнов, Виктор Мережко, Мария Кивва, Анна Калугина, Станислав Ландграф
Описание:Сезон 1Оперативного работника уголовного розыска Сергея Кузьмичева посылают в Москву с целью внедрения в одну из преступных группировок. Его первое задание представляется не очень сложным. Молодой парень из провинции, якобы приехавший на заработки, успешно с ним справляется.
Однако, по воле случая, он оказывается в самом пекле бандитских разборок. Получив со временем статус серьезного уголовного авторитета, он внедряется во все более влиятельные группировки, и, войдя в доверие, вступает в борьбу с мощной, отлаженной системой криминального мира.

---Сезон 2Оперативного работника уголовного розыска Сергея Кузьмичева посылают в Москву с целью внедрения в одну из преступных группировок. Получив со временем статус серьёзного уголовного авторитета, он внедряется во все более влиятельные группировки, и, войдя в доверие, вступает в борьбу с мощной, отлаженной системой криминального мира.
********
Психологическая криминальная драма. Оперативного работника уголовного розыска Сергея Кузьмичева посылают в Москву с целью внедрения в одну из преступных группировок. Его первое задание представляется не очень сложным. Молодой парень из провинции, якобы приехавший на заработки, успешно с ним справляется. Однако, по воле случая, он оказывается в самом пекле бандитских разборок, и, как настоящий оперативник, с риском для жизни, решает продолжить "игру".Крот 2: Крот 2 - продолжение одноименного сериала, в центре которого полная драматизма судьба агента Сергея Кузьмичева, работающего под прикрытием спецслужб в недрах мафиозных структур. В конце предыдущего сериала герой переживает глубокий морапьный кризис и хочет выйти из игры. Но волей обстоятельств вынужден начать новый виток борьбы с по-своему талантливыми, умными и жестокими противниками, чему и посвящены складывающиеся на грани жизни и смерти сложные сюжетные перипетии нового сериала.

Сезон 1
 
Сезон 2
 
Качество: DVDRip
Формат: AVI
Видео кодек: XviD
Аудио кодек: AC3
Видео: XviD, ~ 1320 Кбит/с, 640x480
Аудио: AC3, 2 ch, 192 Кбит/с

MI

General
Complete name : D:\ФИЛЬМЫ\Krot.2.sezona.(24.serii.iz.24).2001-2002.XviD.DVDRip.kinozal.tv\Krot.(12.serii.iz.12).2001.XviD.DVDRip.kinozal.tv\Krot.(01.seriya.iz.12).2001.XviD.DVDRip.kinozal.tv.avi
Format : AVI
Format/Info : Audio Video Interleave
File size : 550 MiB
Duration : 49mn 19s
Overall bit rate : 1 560 Kbps
Writing application : VirtualDubMod 1.5.4.1 (build 2178/release)
Writing library : VirtualDubMod build 2178/release
Video
ID : 0
Format : MPEG-4 Visual
Format profile : Advanced [email protected]
Format settings, BVOP : 1
Format settings, QPel : No
Format settings, GMC : No warppoints
Format settings, Matrix : Custom
Codec ID : XVID
Codec ID/Hint : XviD
Duration : 49mn 19s
Bit rate : 1 361 Kbps
Width : 640 pixels
Height : 480 pixels
Display aspect ratio : 4:3
Frame rate : 25.000 fps
Color space : YUV
Chroma subsampling : 4:2:0
Bit depth : 8 bits
Scan type : Progressive
Compression mode : Lossy
Bits/(Pixel*Frame) : 0.177
Stream size : 480 MiB (87%)
Writing library : XviD 1.3.0.dev55
Audio
ID : 1
Format : AC-3
Format/Info : Audio Coding 3
Mode extension : CM (complete main)
Format settings, Endianness : Big
Codec ID : 2000
Duration : 49mn 19s
Bit rate mode : Constant
Bit rate : 192 Kbps
Channel(s) : 2 channels
Channel positions : Front: L R
Sampling rate : 48.0 KHz
Compression mode : Lossy
Stream size : 67.7 MiB (12%)
Alignment : Split accross interleaves
Interleave, duration : 96 ms (2.40 video frames)
Interleave, preload duratio : 96 ms
Language : Russian

Скриншоты










Последний раз редактировалось: Сергей74 (2015-08-18 16:19), всего редактировалось 1 раз

Создавать темы 18-Авг-2015 16:05

[Профиль]  [ЛС] 

Сергей74 ®

Стаж: 2 года 6 месяцев

Сообщений: 211

Симпатии: 293

aa


Последний раз редактировалось: Сергей74 (2015-09-14 01:44), всего редактировалось 2 раз(а)

Создавать темы 18-Авг-2015 16:10

[Профиль]  [ЛС] 

фазилов

Стаж: 3 года 8 месяцев

Сообщений: 310

Симпатии: 344

Сергей74, Спасибо за релиз!!!! aa

Создавать темы 18-Авг-2015 19:01

[Профиль]  [ЛС] 

Сергей74 ®

Стаж: 2 года 6 месяцев

Сообщений: 211

Симпатии: 293

947671Сергей74, Спасибо за релиз!!!! aa
Пожалуйста ;)

Создавать темы 19-Авг-2015 12:40

[Профиль]  [ЛС] 

titton

Стаж: 7 лет 3 месяца

Сообщений: 69

Симпатии: 2

az плиз дайте скорости

Создавать темы 04-Фев-2016 08:56

[Профиль]  [ЛС] 

qwer123456

Стаж: 4 года 3 месяца

Сообщений: 18

Симпатии: 1

ребят поддайте жару а... скорость скачки нулевая...

Создавать темы 06-Фев-2016 17:35

[Профиль]  [ЛС] 

titton

Стаж: 7 лет 3 месяца

Сообщений: 69

Симпатии: 2

скорость 0

Создавать темы 10-Фев-2016 18:45

[Профиль]  [ЛС] 

titton

Стаж: 7 лет 3 месяца

Сообщений: 69

Симпатии: 2

bc bc плиз дайте скорости, 86% и тишина

Создавать темы 14-Фев-2016 14:28

[Профиль]  [ЛС] 
Показать сообщения:    
Ответить на тему

Текущее время: 23-Окт 01:44

Часовой пояс: UTC + 5



Вы не можете начинать темы
Вы не можете отвечать на сообщения
Вы не можете редактировать свои сообщения
Вы не можете удалять свои сообщения
Вы не можете голосовать в опросах
Вы не можете прикреплять файлы к сообщениям
Вы не можете скачивать файлы