Трейсеры / Tracers (Даниэль Бенмаур) [2015, США, боевик, триллер, драма, криминал, BDRip] (MVO : [Студия Пиратского Дубляжа]) (Sub Eng)

Ответить на тему
 

Behzod5555 ®

Стаж: 2 года

Сообщений: 21

Симпатии: 55

--Трейсеры / Tracers-- Страна: США--Жанр: боевик, триллер, драма, криминал--Год выпуска: 2015--Продолжительность: 01:34:05--Перевод: Профессиональный (многоголосый закадровый) [Студия Пиратского Дубляжа]--Cубтитры: английские--Режиссер: Даниэль Бенмаур--В ролях: Тэйлор Лотнер, Мари Авгеропулос, Рафи Гаврон, Адам Рэйнер, Сэм Медина, Доа Моа, Лучиано Акуна мл., Даг Драклер, Эндрю Элвис Миллер, Эдвард М. Келахэн--Описание: Фильм расскажет историю парня по имени Кэм - велокурьера, находящегося в долгу перед некоей преступной группировкой. В один из дней он сбивает на своем велосипеде сексуальную незнакомку, которая соблазняет его и увлекает в мир паркура.
ТехданныеСкриншоты--Качество видео: BDRip
Формат видео: MKV--Видео: MPEG-4 AVC, 2351 kbps, 1024x428
Аудио: Rus: AC3, 384 Kb/s (6 ch) / Eng: AC3, 384 Kb/s (6 ch)--

MediaInfo

General
Unique ID : 195102765501502956549129633621200832172 (0x92C76D034632EE68A77980A1CB9386AC)
Complete name : D:\Down\Tracers.2015.P.Eng.AVC.BDRip.mkv
Format : Matroska
Format version : Version 4 / Version 2
File size : 2.09 GiB
Duration : 1h 34mn
Overall bit rate : 3 183 Kbps
Encoded date : UTC 2010-02-22 21:41:31
Writing application : mkvmerge v5.9.0 ('On The Loose') built on Dec 9 2012 15:37:01
Writing library : libebml v1.3.0 + libmatroska v1.4.0
Video
ID : 1
Format : AVC
Format/Info : Advanced Video Codec
Format profile : [email protected]
Format settings, CABAC : No
Format settings, ReFrames : 1 frame
Muxing mode : Header stripping
Codec ID : V_MPEG4/ISO/AVC
Duration : 1h 34mn
Bit rate : 2 351 Kbps
Width : 1 024 pixels
Height : 428 pixels
Display aspect ratio : 2.40:1
Frame rate mode : Constant
Frame rate : 23.976 fps
Color space : YUV
Chroma subsampling : 4:2:0
Bit depth : 8 bits
Scan type : Progressive
Bits/(Pixel*Frame) : 0.224
Stream size : 1.55 GiB (74%)
Default : Yes
Forced : No
Audio #1
ID : 2
Format : AC-3
Format/Info : Audio Coding 3
Mode extension : CM (complete main)
Format settings, Endianness : Big
Muxing mode : Header stripping
Codec ID : A_AC3
Duration : 1h 34mn
Bit rate mode : Constant
Bit rate : 384 Kbps
Channel(s) : 6 channels
Channel positions : Front: L C R, Side: L R, LFE
Sampling rate : 48.0 KHz
Bit depth : 16 bits
Compression mode : Lossy
Stream size : 258 MiB (12%)
Language : Russian
Default : Yes
Forced : No
Audio #2
ID : 3
Format : AC-3
Format/Info : Audio Coding 3
Mode extension : CM (complete main)
Format settings, Endianness : Big
Muxing mode : Header stripping
Codec ID : A_AC3
Duration : 1h 34mn
Bit rate mode : Constant
Bit rate : 384 Kbps
Channel(s) : 6 channels
Channel positions : Front: L C R, Side: L R, LFE
Sampling rate : 48.0 KHz
Bit depth : 16 bits
Compression mode : Lossy
Stream size : 258 MiB (12%)
Language : English
Default : No
Forced : No
Text
ID : 4
Format : UTF-8
Codec ID : S_TEXT/UTF8
Codec ID/Info : UTF-8 Plain Text
Language : English
Default : No
Forced : No
Menu
00:00:00.000 : en:Chapter 1
00:03:37.000 : en:Chapter 2
00:14:34.000 : en:Chapter 3
00:20:05.000 : en:Chapter 4
00:27:01.000 : en:Chapter 5
00:36:06.000 : en:Chapter 6
00:43:15.000 : en:Chapter 7
00:54:59.000 : en:Chapter 8
01:01:59.000 : en:Chapter 9
01:10:37.000 : en:Chapter 10
01:16:49.000 : en:Chapter 11
01:24:53.000 : en:Chapter 12
01:28:28.000 : en:Chapter 13

Скриншот c названием фильма

Скриншоты





Создавать темы 18-Авг-2015 16:35

[Профиль]  [ЛС] 

Топик был перенесен из форума Фильмы за 2015 в форум HD-AVC
Каротажник

Создавать темы 18-Авг-2015 21:02

 
Показать сообщения:    
Ответить на тему

Текущее время: 22-Авг 21:56

Часовой пояс: UTC + 5



Вы не можете начинать темы
Вы не можете отвечать на сообщения
Вы не можете редактировать свои сообщения
Вы не можете удалять свои сообщения
Вы не можете голосовать в опросах
Вы не можете прикреплять файлы к сообщениям
Вы не можете скачивать файлы