Полицейская тачка | Cop Car (Джон Уоттс | John Watts) [2015, Триллер, WEB-DLRip (AVC)] VO [Paul Bunyan]

Ответить на тему
 

Beka999 ®

Стаж: 3 года 11 месяцев

Сообщений: 15

Симпатии: 13

-Cop Car | Полицейская тачка-«Their first drive could be their last»- Год выпуска: 2015
Страна: США, Audax Films, End Cue, Park Pictures
Жанр: Триллер
Продолжительность: 01:27:47
Перевод:Любительский одноголосый [Paul Bunyan]
Субтитры: Английские -Режиссер: Джон Уоттс | Joshua Trank
Сценарий: Джон Уоттс, Кристофер Д. Форд
Продюсер: Сэм Бисби, Andrew Kortschak, Коуди Райдер
Композитор: Фил Моссман
Худжник: Майкл Поуснер, Нэйт Олдэм, Ruby Katilius
Оператор: Мэттью Дж. Ллойд, Ларкин Сайпл
Монтаж: Меган Брукс, Эндрю Хассе--В главных ролях: Кевин Бейкон, Джеймс Фридсон-Джексон, Хэйс Уэллфорд, Камрин Менхейм, Ши Уигхэм, Кэтлин Бентли, Джозеф Оливейра
Описание: Два 10-летних мальчишки находят заброшенный полицейский автомобиль и решают присвоить его себе. Обычная детская игра начинает приобретать пугающие черты после того, как шериф небольшого городка отправляется на поиски своей пропавшей машины.-- --Премьера (мир): 24 января 2015-Рейтинг MPAA: лицам до 17 лет обязательно присутствие взрослого--Качество: WEB-DLRip (AVC) [Рип с WEB-DL 720p]
Формат: MKV
Видео кодек: AVC
Аудио кодеk: AC3
Видео: MPEG-4 AVC 1024x426, 23.976 fps, 1 950 kb/s
Аудио: AC3, 48.0 KHz, Russian, 384 kb/s (6 ch)
-

MediaInfo

General
Unique ID                      : 189086291025793708342180026852361768780 (0x8E40B1EB4180196D942108325C260F4C)
Complete name                  : D:\Downloads\Cop.Car.2015.AVC.WEB-DLRip.H264.mkv
Format                         : Matroska
Format version                 : Version 4 / Version 2
File size                      : 1.43 GiB
Duration                       : 1h 27mn
Overall bit rate               : 2 335 Kbps
Encoded date                   : UTC 2015-08-15 05:08:04
Writing application            : mkvmerge v8.1.0 ('Psychedelic Postcard') 32bit
Writing library                : Lavf56.22.100
DURATION                       : 01:27:47.680000000
NUMBER_OF_FRAMES               : 164615
NUMBER_OF_BYTES                : 252848640
_STATISTICS_WRITING_APP        : mkvmerge v8.1.0 ('Psychedelic Postcard') 32bit
_STATISTICS_WRITING_DATE_UTC   : 2015-08-17 06:53:31
_STATISTICS_TAGS               : BPS DURATION NUMBER_OF_FRAMES NUMBER_OF_BYTES
Video
ID                             : 1
Format                         : AVC
Format/Info                    : Advanced Video Codec
Format profile                 : [email protected]
Format settings, CABAC         : Yes
Format settings, ReFrames      : 6 frames
Codec ID                       : V_MPEG4/ISO/AVC
Duration                       : 1h 27mn
Bit rate                       : 1 950 Kbps
Width                          : 1 024 pixels
Height                         : 426 pixels
Display aspect ratio           : 2.40:1
Frame rate mode                : Constant
Frame rate                     : 23.976 fps
Standard                       : Component
Color space                    : YUV
Chroma subsampling             : 4:2:0
Bit depth                      : 8 bits
Scan type                      : Progressive
Bits/(Pixel*Frame)             : 0.186
Stream size                    : 1.17 GiB (82%)
Writing library                : x264 core 144 r2525
Encoding settings              : cabac=1 / ref=6 / deblock=1:0:0 / analyse=0x3:0x102 / me=umh / subme=7 / psy=1 / psy_rd=1.00:1.00 / mixed_ref=0 / me_range=16 / chroma_me=1 / trellis=1 / 8x8dct=1 / cqm=0 / deadzone=21,21 / fast_pskip=1 / chroma_qp_offset=-4 / threads=6 / lookahead_threads=1 / sliced_threads=0 / nr=0 / decimate=1 / interlaced=0 / bluray_compat=0 / constrained_intra=0 / bframes=5 / b_pyramid=0 / b_adapt=1 / b_bias=5 / direct=3 / weightb=1 / open_gop=1 / weightp=2 / keyint=239 / keyint_min=23 / scenecut=40 / intra_refresh=0 / rc_lookahead=30 / rc=2pass / mbtree=1 / bitrate=1950 / ratetol=1.0 / qcomp=0.60 / qpmin=8 / qpmax=69 / qpstep=8 / cplxblur=20.0 / qblur=0.5 / ip_ratio=1.40 / aq=1:1.00
Default                        : Yes
Forced                         : No
Color range                    : Limited
DURATION                       : 01:27:46.934000000
NUMBER_OF_FRAMES               : 126281
NUMBER_OF_BYTES                : 1283497314
_STATISTICS_WRITING_APP        : mkvmerge v8.1.0 ('Psychedelic Postcard') 32bit
_STATISTICS_WRITING_DATE_UTC   : 2015-08-17 06:53:31
_STATISTICS_TAGS               : BPS DURATION NUMBER_OF_FRAMES NUMBER_OF_BYTES
Audio
ID                             : 4
Format                         : AC-3
Format/Info                    : Audio Coding 3
Mode extension                 : CM (complete main)
Format settings, Endianness    : Big
Codec ID                       : A_AC3
Duration                       : 1h 27mn
Bit rate mode                  : Constant
Bit rate                       : 384 Kbps
Channel(s)                     : 6 channels
Channel positions              : Front: L C R, Side: L R, LFE
Sampling rate                  : 48.0 KHz
Bit depth                      : 16 bits
Compression mode               : Lossy
Delay relative to video        : -42ms
Stream size                    : 241 MiB (16%)
Language                       : Russian
Default                        : Yes
Forced                         : No
Text #1
ID                             : 2
Format                         : UTF-8
Codec ID                       : S_TEXT/UTF8
Codec ID/Info                  : UTF-8 Plain Text
Language                       : English
Default                        : No
Forced                         : No
Text #2
ID                             : 3
Format                         : UTF-8
Codec ID                       : S_TEXT/UTF8
Codec ID/Info                  : UTF-8 Plain Text
Language                       : English
Default                        : No
Forced                         : No
Menu
00:00:00.000                   : en:1
00:05:25.000                   : en:2
00:10:04.000                   : en:3
00:14:29.000                   : en:4
00:20:30.000                   : en:5
00:23:43.000                   : en:6
00:27:53.000                   : en:7
00:30:32.000                   : en:8
00:34:43.000                   : en:9
00:40:13.000                   : en:10
00:43:31.000                   : en:11
00:48:24.000                   : en:12
00:52:50.000                   : en:13
00:56:31.000                   : en:14
01:00:37.000                   : en:15
01:05:08.000                   : en:16
01:08:58.000                   : en:17
01:15:30.000                   : en:18
01:19:43.000                   : en:19
01:23:43.000                   : en:20

Скриншоты





Создавать темы 18-Авг-2015 18:41

[Профиль]  [ЛС] 
Показать сообщения:    
Ответить на тему

Текущее время: 24-Окт 10:45

Часовой пояс: UTC + 5



Вы не можете начинать темы
Вы не можете отвечать на сообщения
Вы не можете редактировать свои сообщения
Вы не можете удалять свои сообщения
Вы не можете голосовать в опросах
Вы не можете прикреплять файлы к сообщениям
Вы не можете скачивать файлы