Служебный роман (Эльдар Рязанов) [1977, мелодрама, комедия, BDRip-720p,]

Ответить на тему
 

lazizbek_lg ®

Стаж: 6 лет 10 месяцев

Сообщений: 18

Симпатии: 6

Служебный роман
-Год выпуска: 1977
Страна: Россия
Жанр: мелодрама, комедия
Продолжительность: 02:36:40
Перевод: Профессиональный (полный дублированный ) Ўзбек тилида-Режиссёр: Эльдар Рязанов-Сценарий: Эмиль Брагинский, Эльдар Рязанов
Директор фильма: Карлен Агаджанов
Oператор: Владимир Нахабцев
Композитор: Андрей Петров
Художник: Александр Борисов, Сергей Воронков
Монтаж: Валерия Белова, Элеонора Праксина-В ролях: Андрей Мягков, Алиса Фрейндлих, Светлана Немоляева, Олег Басилашвили, Лия Ахеджакова, Георгий Бурков, Зоя Исаева, Людмила Иванова, Петр Щербаков, Мария Виноградова-Описание: Анатолий Ефремович Новосельцев, рядовой служащий одного статистического управления, — человек робкий и застенчивый. Для него неплохо бы получить вакантное место зав. отделом, но он не знает как подступиться к этому делу. Старый приятель Самохвалов советует ему приударить за Людмилой Прокофьевной Калугиной, — сухарем в юбке и директором заведения…-Качество видео: BDRip-720p
Формат видео: MKV
Видео кодек: H.264
Аудио кодек: MP3, AC3
Видео: MPEG4 Video (H264) 948x720 23.976fps, 3818 Kbps
Аудио-1: MPEG Audio Layer 3 44100Hz stereo 128 kbps (Ўзбек тилида)
Аудио-2: Dolby AC3 48000Hz 6ch 448kbps (Oригинал)-

MediaInfo

General
Unique ID : 178845328615846887536315238537977585216 (0x868C5B7D391FC1F08A93CD63EF6ADE40)
Format : Matroska
Format version : Version 4 / Version 2
File size : 4.81 GiB
Duration : 2h 36mn
Overall bit rate : 4 396 Kbps
Movie name : Служебный роман (1977)
Encoded date : UTC 2013-04-22 06:42:54
Writing application : mkvmerge v6.1.0 ('Old Devil') built on Mar 31 2013 15:21:18
Writing library : libebml v1.3.0 + libmatroska v1.4.0
Video
ID : 1
Format : AVC
Format/Info : Advanced Video Codec
Format profile : [email protected]
Format settings, CABAC : Yes
Format settings, ReFrames : 8 frames
Codec ID : V_MPEG4/ISO/AVC
Duration : 2h 36mn
Bit rate : 3 818 Kbps
Width : 948 pixels
Height : 720 pixels
Display aspect ratio : 4:3
Frame rate mode : Constant
Frame rate : 23.976 fps
Color space : YUV
Chroma subsampling : 4:2:0
Bit depth : 8 bits
Scan type : Progressive
Bits/(Pixel*Frame) : 0.233
Stream size : 4.08 GiB (85%)
Title : Служебный роман (1977)
Writing library : x264 core 122 r2184 5c85e0a
Encoding settings : cabac=1 / ref=8 / deblock=1:-1:-1 / analyse=0x3:0x113 / me=umh / subme=10 / psy=1 / psy_rd=1.00:0.20 / mixed_ref=1 / me_range=32 / chroma_me=1 / trellis=2 / 8x8dct=1 / cqm=0 / deadzone=21,11 / fast_pskip=0 / chroma_qp_offset=-3 / threads=6 / sliced_threads=0 / nr=0 / decimate=0 / interlaced=0 / bluray_compat=0 / constrained_intra=0 / bframes=6 / b_pyramid=2 / b_adapt=2 / b_bias=0 / direct=3 / weightb=1 / open_gop=0 / weightp=2 / keyint=240 / keyint_min=23 / scenecut=40 / intra_refresh=0 / rc_lookahead=40 / rc=2pass / mbtree=0 / bitrate=3818 / ratetol=1.0 / qcomp=0.60 / qpmin=0 / qpmax=69 / qpstep=4 / cplxblur=20.0 / qblur=0.5 / vbv_maxrate=50000 / vbv_bufsize=50000 / nal_hrd=none / ip_ratio=1.40 / pb_ratio=1.30 / aq=1:1.00
Language : Russian
Default : Yes
Forced : No
Audio #1
ID : 2
Format : MPEG Audio
Format version : Version 1
Format profile : Layer 3
Mode : Joint stereo
Mode extension : MS Stereo
Codec ID : A_MPEG/L3
Codec ID/Hint : MP3
Duration : 2h 36mn
Bit rate mode : Constant
Bit rate : 128 Kbps
Channel count : 2 channels
Sampling rate : 44.1 KHz
Compression mode : Lossy
Stream size : 143 MiB (3%)
Title : O`zbek tilida, Professional litsenziya
Writing library : LAME3.97
Language : Uzbek
Default : No
Forced : No
Audio #2
ID : 3
Format : AC-3
Format/Info : Audio Coding 3
Mode extension : CM (complete main)
Format settings, Endianness : Big
Codec ID : A_AC3
Duration : 2h 36mn
Bit rate mode : Constant
Bit rate : 448 Kbps
Channel count : 6 channels
Channel positions : Front: L C R, Side: L R, LFE
Sampling rate : 48.0 KHz
Bit depth : 16 bits
Compression mode : Lossy
Stream size : 502 MiB (10%)
Title : Rus tilida, Original
Language : Russian
Default : Yes
Forced : No

Скриншоты






Создавать темы 20-Авг-2015 11:27

[Профиль]  [ЛС] 

azizjon87

Стаж: 5 лет 10 месяцев

Сообщений: 28

ну и когда закончится премодерация?

Создавать темы 24-Авг-2015 20:50

[Профиль]  [ЛС] 

azizjon87

Стаж: 5 лет 10 месяцев

Сообщений: 28

куда смотрят модераторы? когда можно будет скачать?

Создавать темы 27-Авг-2015 17:15

[Профиль]  [ЛС] 

Акбаржон

Стаж: 5 лет 10 месяцев

Сообщений: 4

Симпатии: 1

skorost dayte pojaluysta

Создавать темы 11-Фев-2016 11:28

[Профиль]  [ЛС] 

hadisa

Стаж: 3 года 11 месяцев

Сообщений: 5

lazizbek_lg,

Создавать темы 25-Июл-2016 17:13

[Профиль]  [ЛС] 

lazizbek_lg ®

Стаж: 6 лет 10 месяцев

Сообщений: 18

Симпатии: 6

hadisa, раздача началась

Создавать темы 28-Июл-2016 10:05

[Профиль]  [ЛС] 

hadisa

Стаж: 3 года 11 месяцев

Сообщений: 5

rahmat

Создавать темы 29-Июл-2016 08:49

[Профиль]  [ЛС] 

hadisa

Стаж: 3 года 11 месяцев

Сообщений: 5

lazizbek_lg, okajon sidga qayting iltimos

Создавать темы 23-Сен-2016 10:20

[Профиль]  [ЛС] 
Показать сообщения:    
Ответить на тему

Текущее время: 12-Дек 13:34

Часовой пояс: UTC + 5



Вы не можете начинать темы
Вы не можете отвечать на сообщения
Вы не можете редактировать свои сообщения
Вы не можете удалять свои сообщения
Вы не можете голосовать в опросах
Вы не можете прикреплять файлы к сообщениям
Вы не можете скачивать файлы