Легенда о Красном Орле / Legend of Red Eagle (Хосе Рамон Айерра) [2011, Испания, приключения, боевик, DVDRip] (Dub) (Original Spa)

Ответить на тему
 

Ulmas Umarov ®

Стаж: 2 года 9 месяцев

Сообщений: 4

Симпатии: 9

Легенда о Красном Орле / Legend of Red Eagle Страна: Испания
Жанр: приключения, боевик
Год выпуска: 2011
Продолжительность: 01:58:19
Перевод: Профессиональный (дублированный)
Cубтитры: нет
Оригинальная аудиодорожка: испанский
Режиссер: Хосе Рамон Айерра
В ролях: Давид Ханер, Хавьер Гутьеррес, Франсис Лоренсо, Инма Куэста, Мирйам Гальего, Роберто Аламо, Пепа Аниорте, Сантьяго Молеро, Шавьер Элоррьяга, Хосе Анхель Эхидо
Описание: XVII век, встреча представителей самых влиятельных стран того времени: Франции, Англии и Португалии. Для участия в ней приехал даже Папа Римский. Хотя все эти страны собрались для поиска путей примирения испанцев с их противниками, реальные мотивы встречи состоят в намерении атаковать королевство Испании. Чтобы гарантировать успех заговора, возглавляемого маркизой Сантиллана, совет решает с помощью кровожадного наемника покончить с непокорным Красным Орлом
Доп. информация:
сценарий Гильермо Сиснерос, Пилар Надаль, Хуан Мария Руис Кордоба
продюсер Даниэль Эсиха, Сантьяго Де Ла Рика, Аранча Эсиха
оператор Адольфо Эрнандес
композитор Даниэль Санчес де ла Эра
художник Эктор Х. Бертранд, Фернандо Гонсалес, Лаура Херрера
монтаж Артуро Бараона, Хосу Мартинес Чаморро, Лаура Монтесин
Качество видео: DVDRip
Формат видео: AVI
Видео: Xvid 720x304 25fps YUV 4:2:0
Аудио: Dolby AC3 48000Hz 6ch 448kbps

MediaInfo

General
Complete name : D:\instal\krasnyi_orel.avi
Format : AVI
Format/Info : Audio Video Interleave
File size : 1.46 GiB
Duration : 1h 58mn
Overall bit rate : 1 768 Kbps
Writing application : VirtualDubMod 1.5.10.3 | www.virtualdub-fr.org || (build 2550/release)
Writing library : VirtualDubMod build 2550/release
Video
ID : 0
Format : MPEG-4 Visual
Format profile : Advanced [email protected]
Format settings, BVOP : Yes
Format settings, QPel : No
Format settings, GMC : No warppoints
Format settings, Matrix : Default (MPEG)
Codec ID : XVID
Codec ID/Hint : XviD
Duration : 1h 58mn
Bit rate : 1 310 Kbps
Width : 720 pixels
Height : 304 pixels
Display aspect ratio : 2.35:1
Frame rate : 25.000 fps
Color space : YUV
Chroma subsampling : 4:2:0
Bit depth : 8 bits
Scan type : Progressive
Compression mode : Lossy
Bits/(Pixel*Frame) : 0.239
Stream size : 1.08 GiB (74%)
Writing library : XviD 1.2.1 (UTC 2008-12-04)
Audio
ID : 1
Format : AC-3
Format/Info : Audio Coding 3
Mode extension : CM (complete main)
Format settings, Endianness : Big
Codec ID : 2000
Duration : 1h 58mn
Bit rate mode : Constant
Bit rate : 448 Kbps
Channel count : 6 channels
Channel positions : Front: L C R, Side: L R, LFE
Sampling rate : 48.0 KHz
Bit depth : 16 bits
Compression mode : Lossy
Stream size : 379 MiB (25%)
Alignment : Split accross interleaves
Interleave, duration : 40 ms (1.00 video frame)
Interleave, preload duration : 500 ms

Скриншоты










Создавать темы 21-Авг-2015 00:05

[Профиль]  [ЛС] 

malikit

Стаж: 3 года 10 месяцев

Сообщений: 62

Симпатии: 24

Когда раздача?????

Создавать темы 21-Авг-2015 02:34

[Профиль]  [ЛС] 

Nehtez

Стаж: 2 года

Сообщений: 75

Симпатии: 34

Как фильм?
Смотреть стоит?

Создавать темы 12-Окт-2016 19:28

[Профиль]  [ЛС] 
Показать сообщения:    
Ответить на тему

Текущее время: 15-Дек 03:59

Часовой пояс: UTC + 5



Вы не можете начинать темы
Вы не можете отвечать на сообщения
Вы не можете редактировать свои сообщения
Вы не можете удалять свои сообщения
Вы не можете голосовать в опросах
Вы не можете прикреплять файлы к сообщениям
Вы не можете скачивать файлы