Ползучий Хаос! Няруко-сан F / Haiyore! Nyaruko-san F (Нагасава Цуёси) [OVA] [без хардсаба] [1 из 1] [RUS(ext), JAP+SUB] [2015 г., комедия, пародия, BDRip] [720p]

Ответить на тему
 

LikeSmile ®

Стаж: 4 года 5 месяцев

Сообщений: 298

Симпатии: 48

- Год выпуска: 2015
Страна: Япония
Жанр: комедия, пародия
Продолжительность: ОВА (1 эп.), 30 мин.
-Перевод:
  • русские субтитры от Hige-san
-Озвучка:
  • двухголосая (муж./жен.) от Snowly & Lizaveta [Shiza Project]
-Режиссер: Нагасава Цуёси
Автор оригинала: Айсора Манта
Студия: XEBEC
-Описание:
Новая OVA более подробно расскажет нам об отношениях Няруко и Махиро, а также, вероятнее всего, станет заключительной.-Дополнительную информацию можете найти на: WA || AniDB || MAL-Качество: BDRip
Энкод: [Ohys-Raws]
Тип видео: без хардсаба
Формат: mkv
Видео: x264, 1280x720, ~2800 Kbps, 23.976 fps
Аудио JAP: AC3, 48000Hz, 192 Kbps, 2ch
Аудио RUS: AC3, 48000Hz, 192 Kbps, 2ch--

Media Info

General
Unique ID                   : 218844340019877550305343477109292589020 (0xA4A3E302BAAD61789BE06C0DEEC0DFDC)
Complete name               : D:\Anime\[SHIZA Project] Haiyore! Nyaruko-san F OVA [BDRip 720p]\[Ohys-Raws] Haiyore! Nyaruko-san F OVA (BD 1280x720 x264 AC-3).mkv
Format                      : Matroska
Format version              : Version 4 / Version 2
File size                   : 534 MiB
Duration                    : 27mn 57s
Overall bit rate            : 2 669 Kbps
Encoded date                : UTC 2015-08-04 05:22:43
Writing application         : mkvmerge v7.8.0 ('River Man') 64bit built on Mar 27 2015 16:31:37
Writing library             : libebml v1.3.1 + libmatroska v1.4.2
DURATION                    : 00:27:57.888000000
NUMBER_OF_FRAMES            : 52434
NUMBER_OF_BYTES             : 40269312
_STATISTICS_WRITING_APP     : mkvmerge v7.8.0 ('River Man') 64bit built on Mar 27 2015 16:31:37
_STATISTICS_WRITING_DATE_UT : 2015-08-04 05:22:43
_STATISTICS_TAGS            : BPS DURATION NUMBER_OF_FRAMES NUMBER_OF_BYTES
Video
ID                          : 1
Format                      : AVC
Format/Info                 : Advanced Video Codec
Format profile              : [email protected]
Format settings, CABAC      : Yes
Format settings, ReFrames   : 4 frames
Codec ID                    : V_MPEG4/ISO/AVC
Duration                    : 27mn 57s
Bit rate                    : 2 424 Kbps
Width                       : 1 280 pixels
Height                      : 720 pixels
Display aspect ratio        : 16:9
Frame rate mode             : Constant
Frame rate                  : 23.976 fps
Color space                 : YUV
Chroma subsampling          : 4:2:0
Bit depth                   : 8 bits
Scan type                   : Progressive
Bits/(Pixel*Frame)          : 0.110
Stream size                 : 485 MiB (91%)
Writing library             : x264 core 146 r2538 121396c
Encoding settings           : cabac=1 / ref=3 / deblock=1:0:0 / analyse=0x1:0x131 / me=umh / subme=9 / psy=1 / psy_rd=1.00:0.00 / mixed_ref=1 / me_range=32 / chroma_me=1 / trellis=1 / 8x8dct=0 / cqm=0 / deadzone=21,11 / fast_pskip=1 / chroma_qp_offset=-2 / threads=12 / lookahead_threads=1 / sliced_threads=0 / nr=0 / decimate=1 / interlaced=0 / bluray_compat=0 / constrained_intra=0 / bframes=3 / b_pyramid=2 / b_adapt=1 / b_bias=0 / direct=1 / weightb=1 / open_gop=0 / weightp=2 / keyint=240 / keyint_min=1 / scenecut=40 / intra_refresh=0 / rc_lookahead=40 / rc=crf / mbtree=1 / crf=17.0 / qcomp=0.60 / qpmin=0 / qpmax=69 / qpstep=4 / ip_ratio=1.40 / aq=1:1.00
Language                    : Japanese
Default                     : Yes
Forced                      : No
Audio
ID                          : 2
Format                      : AC-3
Format/Info                 : Audio Coding 3
Mode extension              : CM (complete main)
Format settings, Endianness : Big
Codec ID                    : A_AC3
Duration                    : 27mn 57s
Bit rate mode               : Constant
Bit rate                    : 192 Kbps
Channel(s)                  : 2 channels
Channel positions           : Front: L R
Sampling rate               : 48.0 KHz
Compression mode            : Lossy
Stream size                 : 38.4 MiB (7%)
Language                    : Japanese
Default                     : No
Forced                      : No
-

Скриншоты





Создавать темы 21-Авг-2015 10:38

[Профиль]  [ЛС] 
Показать сообщения:    
Ответить на тему

Текущее время: 22-Окт 00:31

Часовой пояс: UTC + 5



Вы не можете начинать темы
Вы не можете отвечать на сообщения
Вы не можете редактировать свои сообщения
Вы не можете удалять свои сообщения
Вы не можете голосовать в опросах
Вы не можете прикреплять файлы к сообщениям
Вы не можете скачивать файлы