Ползучий хаос! Няруко-сан / Haiyore! Nyaruko-san / Nyarko-san: Another Crawling Chaos (Нагасава Цуёси) [TV] [без хардсаба] [12 из 12] [RUS(ext), JAP+SUB] [2012 г., приключения, комедия, пародия, BDRip] [720p]

Ответить на тему
 

LikeSmile ®

Стаж: 4 года 7 месяцев

Сообщений: 298

Симпатии: 48

-- Год выпуска: 2012
Страна: Япония
Жанр: приключения, комедия, пародия
Продолжительность: 12 эп. по 25 мин.
--Перевод:
  • русские субтитры от Yakusub Studio (полные / вспомогательные)

Озвучка:
  • двухголосая (муж./жен.) от DemonOFmooN & MezIdA
  • двухголосая (муж./жен.) от Tray & Angel
--Режиссер: Нагасава Цуёси
Автор оригинала: Айсора Манта
Студия: Xebec
-На данном трекере имеется:
Haiyore! Nyaruko-san TV-1
Haiyore! Nyaruko-san W TV-2
Haiyore! Nyaruko-san W OVA

Haiyore! Nyaruko-san F OVA
--Описание:
Проснулись как-то Великие Древние – а Вселенная принадлежит уже другим силам, их же номер, как говорится, шестнадцатый. Пораскинув щупальцами, боги Ктулху расползлись в разные стороны – кто в искусство, кто в игровую индустрию, а самые деятельные поступили на службу в галактический Интерпол. И вот новое задание – помочь некоей голубой планете, на которую нацелился сам адский Сатана! Получив приказ, ползучий хаос Ньярлатотеп, огненная Ктугха и неизрекаемый Хастур перевоплощаются в кавайных старших школьниц и приступают к операции!
Для внедрения судьба подкинула оперативникам простого японского школьника по имени Махиро Ясака – родители вечно в отъезде, база свободна, а сам парень непрошибаем, как Будда, и готов жить хоть с целым пантеоном. При этом Ясака прям, честен, начитан, обладает своеобразным юмором – неудивительно, что Ньяруко им заинтересовалась, а вслед за ней и остальные коллеги. Ради поддержания легенды Ньяруко, Куко и Хаста стали ходить в школу, научились готовить и вести хозяйство, и, конечно, попали в героини самых горячих местных сплетен. Теперь между битвами с силами зла и интригами с боссами игрового мира бедняга Махиро сможет на себе убедиться, чем интерес богинь отличается от внимания земных девушек!
© Hollow, World Art
--Дополнительную информацию можете найти на: AniDB || WA || MAL--Качество: BDRip
Энкод: Yousei-raws | #[email protected] rizon. net
Тип видео: без хардсаба
Формат: mkv
Видео: x264 (Hi10p), 1280x720, ~2500 Kbps, 23.976 fps
Аудио JAP: Vorbis, 48000Hz, 256 Kbps, 2ch
Аудио RUS: AAC, 48000Hz, ~192 Kbps, 2ch
--

Media Info

General
Unique ID                                : 177334106230749647399089140738631387659 (0x85694E79157F2CCCB488B032155FCA0B)
Complete name                            : J:\Anime [Скачано с торрентов]\Haiyore! Nyaruko-san [BD] [720p]\[Yousei-raws] Haiyore! Nyaruko-san 01 [BDrip 1280x720 x264 Vorbis].mkv
Format                                   : Matroska
Format version                           : Version 2
File size                                : 483 MiB
Duration                                 : 23mn 56s
Overall bit rate mode                    : Variable
Overall bit rate                         : 2 822 Kbps
Encoded date                             : UTC 2012-06-29 16:14:54
Writing application                      : mkvmerge v2.9.7 ('Tenderness') built on Jul  1 2009 18:43:35
Writing library                          : libebml v0.7.7 + libmatroska v0.8.1
Video
ID                                       : 1
Format                                   : AVC
Format/Info                              : Advanced Video Codec
Format profile                           : High [email protected]
Format settings, CABAC                   : Yes
Format settings, ReFrames                : 9 frames
Codec ID                                 : V_MPEG4/ISO/AVC
Duration                                 : 23mn 56s
Bit rate                                 : 2 510 Kbps
Width                                    : 1 280 pixels
Height                                   : 720 pixels
Display aspect ratio                     : 16:9
Frame rate mode                          : Constant
Frame rate                               : 23.976 fps
Color space                              : YUV
Chroma subsampling                       : 4:2:0
Bit depth                                : 10 bits
Scan type                                : Progressive
Bits/(Pixel*Frame)                       : 0.114
Stream size                              : 430 MiB (89%)
Writing library                          : x264 core 120 r2164 da19765
Encoding settings                        : cabac=1 / ref=9 / deblock=1:-2:-2 / analyse=0x3:0x133 / me=umh / subme=9 / psy=1 / psy_rd=0.90:0.00 / mixed_ref=1 / me_range=24 / chroma_me=1 / trellis=2 / 8x8dct=1 / cqm=0 / deadzone=21,11 / fast_pskip=1 / chroma_qp_offset=-2 / threads=6 / sliced_threads=0 / nr=0 / decimate=0 / interlaced=0 / bluray_compat=0 / constrained_intra=0 / bframes=8 / b_pyramid=2 / b_adapt=2 / b_bias=0 / direct=1 / weightb=1 / open_gop=0 / weightp=2 / keyint=250 / keyint_min=23 / scenecut=40 / intra_refresh=0 / rc=crf / mbtree=0 / crf=15.8 / qcomp=0.70 / qpmin=9 / qpmax=40 / qpstep=4 / ip_ratio=1.40 / pb_ratio=1.30 / aq=1:0.90
Default                                  : Yes
Forced                                   : No
Audio
ID                                       : 2
Format                                   : Vorbis
Format settings, Floor                   : 1
Codec ID                                 : A_VORBIS
Duration                                 : 23mn 56s
Bit rate mode                            : Variable
Bit rate                                 : 256 Kbps
Channel(s)                               : 2 channels
Sampling rate                            : 48.0 KHz
Compression mode                         : Lossy
Stream size                              : 43.8 MiB (9%)
Writing library                          : libVorbis (Schaufenugget) (20101101 (Schaufenugget))
Language                                 : Japanese
Default                                  : Yes
Forced                                   : No
-

Скриншоты





Создавать темы 21-Авг-2015 10:53

[Профиль]  [ЛС] 

SoluSoull

Стаж: 2 года 9 месяцев

Сообщений: 379

Симпатии: 452

первый сезон великолепен, а вот второй сезон просто ужас, глав герой разочаровал, гад он.

Создавать темы 21-Авг-2015 11:27

[Профиль]  [ЛС] 

LikeSmile ®

Стаж: 4 года 7 месяцев

Сообщений: 298

Симпатии: 48

SoluSoull, да и первый сезон не "ок" .-. само аниме ни о чем)

Создавать темы 21-Авг-2015 11:43

[Профиль]  [ЛС] 

daniellya

Стаж: 5 лет 8 месяцев

Сообщений: 338

Симпатии: 29

Ну таких аниме много. В Нярко же очень много пародий на сентай (ненене, именно Сентай, я не менял букву хD в качестве примера это популярные Рейнджеры, Нярко же встает в позы Камен Райдера ). Ну и кто знаком с произведениями Лавкрафта, лишний раз посмеется. Ну или пофейспалмит )
А насчет Нярки можно узнать отсылки отсюда http://nyaruref.blogspot.com/2012/04/haiyore-nyaruk...n-episode-1.html

Создавать темы 21-Авг-2015 15:27

[Профиль]  [ЛС] 

LikeSmile ®

Стаж: 4 года 7 месяцев

Сообщений: 298

Симпатии: 48

daniellya, Даже мой любимый LoveLive тронули ;w;

Создавать темы 21-Авг-2015 21:16

[Профиль]  [ЛС] 
Показать сообщения:    
Ответить на тему

Текущее время: 18-Дек 04:37

Часовой пояс: UTC + 5



Вы не можете начинать темы
Вы не можете отвечать на сообщения
Вы не можете редактировать свои сообщения
Вы не можете удалять свои сообщения
Вы не можете голосовать в опросах
Вы не можете прикреплять файлы к сообщениям
Вы не можете скачивать файлы