Мстители: Эра Альтрона / Avengers: Age of Ultron (Джосс Уидон) [2015, США / Marvel Studios Inc., фантастика, боевик, триллер, приключения,WEB-DL 720p] (Dub : Дублированное [Чистый звук])

Страницы :  1, 2  След.

Ответить на тему
 

Сергей74 ®

Стаж: 2 года 6 месяцев

Сообщений: 211

Симпатии: 293

Мстители: Эра Альтрона / Avengers: Age of Ultron
Страна: США / Marvel Studios Inc.
Жанр: фантастика, боевик, триллер, приключения
Год выпуска: 2015
Продолжительность: 02:21:39
Перевод: Профессиональный (дублированный) [Чистый звук]
Cубтитры: нет
Режиссер: Джосс Уидон
В ролях: Роберт Дауни мл., Крис Хемсворт, Крис Эванс, Скарлетт Йоханссон, Марк Руффало, Джереми Реннер, Сэмюэл Л. Джексон, Аарон Тейлор-Джонсон, Элизабет Олсен, Джеймс Спэйдер
Описание: Человечество на грани уничтожения. На этот раз людям угрожает Альтрон — искусственный интеллект, ранее созданный для того, чтобы защищать Землю от любых угроз. Однако, главной угрозой он посчитал человечество. Международная организация Щ. И. Т распалась, и теперь мир не способен справиться с таким мощным врагом, потому люди вновь обращаются за помощью к Величайшим Героям Земли — Мстителям. Однако Альтрон слишком силен, и есть большая вероятность, что даже им не удастся остановить начало надвигающейся Эры Альтрона, где нет места для людей…

Доп. информация: Сохранены оригинальные чаптеры
Качество видео:WEB-DL 720p
Формат видео: MKV
Видео: 3833 Кb/s, 1280x534
Аудио: Russian: AC3, 384 Kb/s (2 ch) / English: AC3, 384 Kb/s ( 6 ch)
 

MediaInfo

General
Unique ID : 189929379497886083646091224880381559855 (0x8EE31163D1FDDDD39BD2B59B900A042F)
Complete name : D:\ФИЛЬМЫ\A.A.o.U.2015.D.WEB-DL.720p.ELEKTRI4KA.uniongang.tv.mkv
Format : Matroska
Format version : Version 4 / Version 2
File size : 4.65 GiB
Duration : 2h 21mn
Overall bit rate : 4 695 Kbps
Movie name : A.A.o.U.2015.D.WEB-DL.720p.ELEKTRI4KA.uniongang.tv [Carl Gaus]
Encoded date : UTC 2015-08-20 19:37:30
Writing application : mkvmerge v6.9.1 ('Blue Panther') 64bit built on Apr 18 2014 18:23:38
Writing library : libebml v1.3.0 + libmatroska v1.4.1
_STATISTICS_WRITING_APP : mkvmerge v7.0.0 ('Where We Going') 64bit built on Jun 9 2014 15:16:27
_STATISTICS_WRITING_DATE_UT : 2015-08-20 08:00:24
_STATISTICS_TAGS : BPS DURATION NUMBER_OF_FRAMES NUMBER_OF_BYTES
DURATION : 02:12:44.089000000
NUMBER_OF_FRAMES : 1862
NUMBER_OF_BYTES : 56100
Video
ID : 1
Format : AVC
Format/Info : Advanced Video Codec
Format profile : [email protected]
Format settings, CABAC : No
Format settings, ReFrames : 2 frames
Codec ID : V_MPEG4/ISO/AVC
Duration : 2h 21mn
Bit rate : 3 833 Kbps
Width : 1 280 pixels
Height : 534 pixels
Display aspect ratio : 2.40:1
Frame rate mode : Constant
Frame rate : 23.976 fps
Color space : YUV
Chroma subsampling : 4:2:0
Bit depth : 8 bits
Scan type : Progressive
Bits/(Pixel*Frame) : 0.234
Stream size : 3.79 GiB (82%)
Title : A.A.o.U.2015.D.WEB-DL.720p.ELEKTRI4KA.uniongang.tv [Carl Gaus]
Language : English
Default : Yes
Forced : No
Color range : Limited
Color primaries : BT.709
Transfer characteristics : BT.709
Matrix coefficients : BT.709
Audio #1
ID : 2
Format : AC-3
Format/Info : Audio Coding 3
Mode extension : CM (complete main)
Format settings, Endianness : Big
Codec ID : A_AC3
Duration : 2h 21mn
Bit rate mode : Constant
Bit rate : 384 Kbps
Channel(s) : 2 channels
Channel positions : Front: L R
Sampling rate : 48.0 KHz
Compression mode : Lossy
Stream size : 389 MiB (8%)
Title : Line - A.A.o.U.2015.D.WEB-DL.720p.ELEKTRI4KA.uniongang.tv [Carl Gaus]
Language : Russian
Default : Yes
Forced : No
Audio #2
ID : 3
Format : AC-3
Format/Info : Audio Coding 3
Mode extension : CM (complete main)
Format settings, Endianness : Big
Codec ID : A_AC3
Duration : 2h 21mn
Bit rate mode : Constant
Bit rate : 384 Kbps
Channel(s) : 6 channels
Channel positions : Front: L C R, Side: L R, LFE
Sampling rate : 48.0 KHz
Compression mode : Lossy
Stream size : 389 MiB (8%)
Title : Original - A.A.o.U.2015.D.WEB-DL.720p.ELEKTRI4KA.uniongang.tv [Carl Gaus]
Language : English
Default : No
Forced : No
Text
ID : 4
Format : UTF-8
Codec ID : S_TEXT/UTF8
Codec ID/Info : UTF-8 Plain Text
Language : English
Default : No
Forced : No
Menu
00:00:00.000 : en:1
00:12:15.000 : en:2
00:21:24.000 : en:3
00:33:01.000 : en:4
00:36:07.000 : en:5
00:42:00.000 : en:6
00:52:43.000 : en:7
00:59:00.000 : en:8
01:15:51.000 : en:9
01:27:08.000 : en:10
01:36:44.000 : en:11
01:54:35.000 : en:12
02:06:27.000 : en:13
02:11:08.000 : en:14

Скриншот c названием фильма


Скриншоты











Последний раз редактировалось: Сергей74 (2015-08-23 23:43), всего редактировалось 6 раз(а)

Создавать темы 21-Авг-2015 14:46

[Профиль]  [ЛС] 

Сергей74 ®

Стаж: 2 года 6 месяцев

Сообщений: 211

Симпатии: 293

aa


Последний раз редактировалось: Сергей74 (2015-09-14 01:43), всего редактировалось 3 раз(а)

Создавать темы 21-Авг-2015 14:54

[Профиль]  [ЛС] 

Davron1402

Стаж: 3 года 9 месяцев

Сообщений: 136

Симпатии: 122

Постер слишком большой, 600х400

Создавать темы 21-Авг-2015 18:16

[Профиль]  [ЛС] 

Топик был перенесен из форума Фильмы за 2015 в форум HD-AVC
Mixer City

Создавать темы 21-Авг-2015 20:35

 

Сергей74 ®

Стаж: 2 года 6 месяцев

Сообщений: 211

Симпатии: 293

Название фильма так и не нашёл я...кто-нибудь заметил?


Последний раз редактировалось: Сергей74 (2015-08-22 12:38), всего редактировалось 2 раз(а)

Создавать темы 21-Авг-2015 23:19

[Профиль]  [ЛС] 

Uzumaki_Naruto

Стаж: 6 лет 8 месяцев

Сообщений: 247

Симпатии: 3

Сергей74, РЕСПЕКТ

Создавать темы 21-Авг-2015 23:45

[Профиль]  [ЛС] 

Сергей74 ®

Стаж: 2 года 6 месяцев

Сообщений: 211

Симпатии: 293

948017Сергей74, РЕСПЕКТ
zd

Создавать темы 22-Авг-2015 12:23

[Профиль]  [ЛС] 

ruhal

Стаж: 2 года 6 месяцев

Сообщений: 1181

Симпатии: 1836

948014Название фильма так и не нашёл я...кто-нибудь заметил?

Создавать темы 23-Авг-2015 21:23

[Профиль]  [ЛС] 

Tolik4523

Стаж: 5 лет 9 месяцев

Сообщений: 271

Симпатии: 27

Сюжет осыпать землю чернозёмом разочаровывает.
Жаль что не смогли на должном уровне развить сюжет.

Создавать темы 23-Авг-2015 21:42

[Профиль]  [ЛС] 

Сергей74 ®

Стаж: 2 года 6 месяцев

Сообщений: 211

Симпатии: 293

948301
948014Название фильма так и не нашёл я...кто-нибудь заметил?

СПАСИБО ;)

Создавать темы 23-Авг-2015 23:43

[Профиль]  [ЛС] 

PIXEL 100

Стаж: 4 года 5 месяцев

Сообщений: 49

Симпатии: 8

Благадарю за труд Сергей74,

Создавать темы 25-Авг-2015 18:48

[Профиль]  [ЛС] 

victor0778

Стаж: 6 лет 8 месяцев

Сообщений: 1670

Симпатии: 142

а почему [Чистый звук] и статус проверено???
когда лицензия выйдет что с этой будет???

Создавать темы 25-Авг-2015 19:20

[Профиль]  [ЛС] 

ruhal

Стаж: 2 года 6 месяцев

Сообщений: 1181

Симпатии: 1836

victor0778, наверно поглотят

Создавать темы 25-Авг-2015 20:15

[Профиль]  [ЛС] 

RUSLANBEK2010

Стаж: 5 лет 2 месяца

Сообщений: 249

Симпатии: 33

Сергей74, Спасибо за такое качество и за то, что выложил. Очень хорошо провел время за просмотром. Спасибо!

Создавать темы 25-Авг-2015 21:13

[Профиль]  [ЛС] 

Сергей74 ®

Стаж: 2 года 6 месяцев

Сообщений: 211

Симпатии: 293

PIXEL 100, RUSLANBEK2010, Пожалуйста ;)

Создавать темы 26-Авг-2015 16:09

[Профиль]  [ЛС] 
Показать сообщения:    
Ответить на тему

Текущее время: 21-Окт 20:54

Часовой пояс: UTC + 5



Вы не можете начинать темы
Вы не можете отвечать на сообщения
Вы не можете редактировать свои сообщения
Вы не можете удалять свои сообщения
Вы не можете голосовать в опросах
Вы не можете прикреплять файлы к сообщениям
Вы не можете скачивать файлы