Атлант расправил плечи: Часть 3 / Atlas Shrugged: Part III (Джеймс Манера) [2014, Фантастика, драма, детектив, BDRip 720р]

Ответить на тему
 

victor0778 ®

Стаж: 6 лет 6 месяцев

Сообщений: 1670

Симпатии: 142

-Атлант расправил плечи: Часть 3-Atlas Shrugged: Part III-
Год выпуска: 2014
Выпущено: США, Atlas 3 Productions
Жанр: Фантастика, драма, детектив
Продолжительность: 01:39:04
Озвучивание: Любительское (двухголосое) [DeadSno & den904]
Субтитры: Русские (на надписи)-Режиссер: Джеймс Манера-В ролях:
Кристоффер Полаха, Лаура Риган, Питер Маккензи, Грег Джерманн, Ларри Седар, Жоаким ди Алмейда, Джен Николайсен, Роб Морроу, Эрик Аллан Крамер, Луис Хертэм
-О фильме:
Действие разворачивается в мире, где экономическая система пребывает на грани краха. По мере того как все происходящее все больше выходит из-под контроля властей, блестящие специалисты-профессионалы, от артистов до промышленников, продолжают бесследно исчезать. В то время как преступления и страх заполоняют все вокруг, правительство продолжает оказывать грубое давление и применять силу против граждан.
Приближаясь к краху, национальная экономика быстро разрушается. У одного человека есть решение. Одна женщина стоит на его пути. Кое-кто не остановится ни перед чем, чтобы управлять им. Другие не остановятся ни перед чем, чтобы спасти его. Он поклялся своей жизнью. Они поклялись найти его. Кто такой Джон Голт?-

MediaInfo

General
Complete name : Atlas Shrugged Part III.L2.720p.mkv
Format : Matroska
File size : 4.50 GiB
Duration : 1h 39mn
Overall bit rate : 6 506 Kbps
Encoded date : UTC 2015-08-11 12:23:38
Writing application : mkvmerge v7.3.0 ('Nouages') 32bit built on Oct 22 2014 18:44:01
Writing library : libebml v1.3.0 + libmatroska v1.4.1
Video
ID : 1
Format : AVC
Format/Info : Advanced Video Codec
Format profile : [email protected]
Format settings, CABAC : Yes
Format settings, ReFrames : 5 frames
Muxing mode : Container [email protected]
Codec ID : V_MPEG4/ISO/AVC
Duration : 1h 39mn
Bit rate : 5 677 Kbps
Width : 1 280 pixels
Height : 720 pixels
Display aspect ratio : 16:9
Frame rate : 23.976 fps
Color space : YUV
Chroma subsampling : 4:2:0
Bit depth : 8 bits
Scan type : Progressive
Bits/(Pixel*Frame) : 0.257
Stream size : 3.84 GiB (85%)
Writing library : x264 core 144 r2525 40bb568
Encoding settings : cabac=1 / ref=5 / deblock=1:0:0 / analyse=0x3:0x133 / me=umh / subme=7 / psy=1 / psy_rd=1.00:0.00 / mixed_ref=1 / me_range=16 / chroma_me=1 / trellis=1 / 8x8dct=1 / cqm=0 / deadzone=21,11 / fast_pskip=0 / chroma_qp_offset=-2 / threads=18 / lookahead_threads=3 / sliced_threads=0 / nr=0 / decimate=1 / interlaced=0 / bluray_compat=0 / constrained_intra=0 / bframes=3 / b_pyramid=2 / b_adapt=1 / b_bias=0 / direct=1 / weightb=1 / open_gop=0 / weightp=2 / keyint=240 / keyint_min=23 / scenecut=40 / intra_refresh=0 / rc_lookahead=40 / rc=2pass / mbtree=1 / bitrate=5677 / ratetol=1.0 / qcomp=0.60 / qpmin=10 / qpmax=51 / qpstep=4 / cplxblur=20.0 / qblur=0.5 / ip_ratio=1.40 / aq=1:1.00
Audio #1
ID : 2
Format : AC-3
Format/Info : Audio Coding 3
Mode extension : CM (complete main)
Codec ID : A_AC3
Duration : 1h 39mn
Bit rate mode : Constant
Bit rate : 192 Kbps
Channel(s) : 2 channels
Channel positions : Front: L R
Sampling rate : 48.0 KHz
Bit depth : 16 bits
Video delay : 24ms
Stream size : 136 MiB (3%)
Language : Russian
Audio #2
ID : 3
Format : AC-3
Format/Info : Audio Coding 3
Mode extension : CM (complete main)
Codec ID : A_AC3
Duration : 1h 39mn
Bit rate mode : Constant
Bit rate : 640 Kbps
Channel(s) : 6 channels
Channel positions : Front: L C R, Side: L R, LFE
Sampling rate : 48.0 KHz
Bit depth : 16 bits
Stream size : 454 MiB (10%)
Text
ID : 4
Format : UTF-8
Codec ID : S_TEXT/UTF8
Codec ID/Info : UTF-8 Plain Text
-Качество: BDRip 720р
Формат: MKV
Видео кодек: AVC
Аудио кодек: AC3
Видео: 1280x720 (16:9), 23.976 fps, AVC, 5 677 Kbps
Аудио #1: AC3, 192 Kbps, 48.0 KHz, 2 ch (rus)
Аудио #2: AC3, 640 Kbps, 48.0 KHz, 6 ch (eng)

Скриншот




--


Последний раз редактировалось: victor0778 (2015-08-23 14:38), всего редактировалось 1 раз

Создавать темы 22-Авг-2015 19:34

[Профиль]  [ЛС] 

victor0778 ®

Стаж: 6 лет 6 месяцев

Сообщений: 1670

Симпатии: 142

Модераторы сами перенесите в HD раздел, не смог там создать тему

Создавать темы 22-Авг-2015 19:36

[Профиль]  [ЛС] 

victor0778 ®

Стаж: 6 лет 6 месяцев

Сообщений: 1670

Симпатии: 142

Кто не смотрел первые 2 части, нет смысла смотреть эту, ничего не поймете. на трекере есть первые 2 части

Создавать темы 22-Авг-2015 19:37

[Профиль]  [ЛС] 

Топик был перенесен из форума Фильмы за 2014 в форум HD-AVC
Каротажник

Создавать темы 24-Авг-2015 11:38

 

Топик был перенесен из форума HD-AVC в форум Зарубежное кино
Каротажник

Создавать темы 24-Авг-2015 20:55

 
Показать сообщения:    
Ответить на тему

Текущее время: 18-Авг 23:28

Часовой пояс: UTC + 5



Вы не можете начинать темы
Вы не можете отвечать на сообщения
Вы не можете редактировать свои сообщения
Вы не можете удалять свои сообщения
Вы не можете голосовать в опросах
Вы не можете прикреплять файлы к сообщениям
Вы не можете скачивать файлы