Приличные люди (Клим Поплавский) [2015, комедия, WEBRip]

Ответить на тему
 

mars751 ®

Стаж: 5 лет 7 месяцев

Сообщений: 227

Симпатии: 113

Приличные люди -Год выпуска: 2015
Страна: Россия
Жанр: комедия
Продолжительность: 01:28:53
Перевод: Оригинал-Режиссёр: Клим Поплавский-В ролях: Наталия Медведева, Сергей Шнуров, Евгений Сморигин, Григорий Цветков, Артём Башенин, Алексей Гришин, Игорь Хрипунов, Андрей Федорцов, Константин Мурзенко, Анна Уколова-Описание: Что делать, если в вашем доме поселился родственник, недавно освободившийся из тюрьмы? И сделал жизнь вашей семьи невыносимой. А вы с женой случайно его убили. И соседский мальчик видел, как вы пытались закопать труп на заднем дворе. А инспектор ДПС обратил внимание на вашего неразговорчивого родственника в машине. Не очень представляя себе жизнь за решеткой, вы, наверное, должны избавиться от трупа… и, видимо, от маленького свидетеля … и полицейскому вы тоже как-то не должны позволить рассказать, что у вас в машине не совсем живой человек и чужой ребенок…

Качество видео: WEBRip
Формат видео: AVI
Видео: 1808 kb/s, 720x272
Аудио: AC3, 384 kb/s (2 ch)

MediaInfo

Общее
Полное имя : F:\Pr1l1chn1e.LUd1.2015.O.WEBRip.avi
Формат : AVI
Формат/Информация : Audio Video Interleave
Размер файла : 1,37 Гбайт
Продолжительность : 1 ч. 28 м.
Общий поток : 2202 Кбит/сек
Программа кодирования : VirtualDubMod 1.5.10.2 (build 2540/release)
Библиотека кодирования : VirtualDubMod build 2540/release
Видео
Идентификатор : 0
Формат : MPEG-4 Visual
Профиль формата : Advanced [email protected]
Параметр BVOP формата : 2
Параметр QPel формата : Нет
Параметр GMC формата : Без точки перехода
Параметр матрицы формата : Default (MPEG)
Идентификатор кодека : XVID
Идентификатор кодека/Подсказка : XviD
Продолжительность : 1 ч. 28 м.
Битрейт : 1808 Кбит/сек
Ширина : 720 пикселей
Высота : 272 пикселя
Соотношение сторон : 2,647
Частота кадров : 25,000 кадров/сек
Цветовое пространство : YUV
Субдискретизация насыщенности : 4:2:0
Битовая глубина : 8 бит
Тип развёртки : Прогрессивная
Метод сжатия : С потерями
Бит/(Пиксели*Кадры) : 0.369
Размер потока : 1,12 Гбайт (82%)
Библиотека кодирования : XviD 1.2.1 (UTC 2008-12-04)
Аудио
Идентификатор : 1
Формат : AC-3
Формат/Информация : Audio Coding 3
Расширение режима : CM (complete main)
Параметр Endianness формата : Big
Идентификатор кодека : 2000
Продолжительность : 1 ч. 28 м.
Вид битрейта : Постоянный
Битрейт : 384 Кбит/сек
Каналы : 2 канала
Расположение каналов : Front: L R
Частота : 48,0 КГц
Метод сжатия : С потерями
Размер потока : 244 Мбайт (17%)
Выравнивание : Разделение по промежуткам
Продолжительность промежутка : 40 мс. (1,00 видеокадр)
Время предзагрузки промежутка : 500 мс.

Скриншоты





Последний раз редактировалось: mars751 (2015-08-23 13:32), всего редактировалось 2 раз(а)

Создавать темы 23-Авг-2015 04:02

[Профиль]  [ЛС] 

Каротажник

Стаж: 4 года 1 месяц

Сообщений: 195

Симпатии: 211

mars751, качество WEBRip или HDRip если HDRip измените название торрента
Mедиа инфо указана что WEBRip

Создавать темы 23-Авг-2015 08:49

[Профиль]  [ЛС] 

victor0778

Стаж: 6 лет 9 месяцев

Сообщений: 1670

Симпатии: 142

здесь качество WEBRip, это и по скриншотам видно

Создавать темы 23-Авг-2015 10:54

[Профиль]  [ЛС] 

victor0778

Стаж: 6 лет 9 месяцев

Сообщений: 1670

Симпатии: 142

он должен находиться в разделе CamRip\TS\DVDScr\SATRip\TVRip\WEBRip и со статусом временная

Создавать темы 23-Авг-2015 13:03

[Профиль]  [ЛС] 

mars751 ®

Стаж: 5 лет 7 месяцев

Сообщений: 227

Симпатии: 113

948254mars751, качество WEBRip или HDRip если HDRip измените название торрента
Mедиа инфо указана что WEBRip
исправил

Создавать темы 23-Авг-2015 13:07

[Профиль]  [ЛС] 

Топик был перенесен из форума Фильмы за 2015 в форум CamRip, DVDScr и т.п.
Каротажник

Создавать темы 23-Авг-2015 15:20

 

mars751 ®

Стаж: 5 лет 7 месяцев

Сообщений: 227

Симпатии: 113

victor0778 нормальное качество.

Создавать темы 23-Авг-2015 16:51

[Профиль]  [ЛС] 

victor0778

Стаж: 6 лет 9 месяцев

Сообщений: 1670

Симпатии: 142

948287Качество видео: WEBRip

Создавать темы 23-Авг-2015 20:07

[Профиль]  [ЛС] 

Андрей Варабей

Стаж: 4 года 8 месяцев

Сообщений: 67

Симпатии: 1

Мы вообще скачаем этот фильм?

Создавать темы 25-Май-2016 05:34

[Профиль]  [ЛС] 

Stitch1990

Стаж: 5 лет 10 месяцев

Сообщений: 67

можно скорости, плиз

Создавать темы 26-Май-2016 22:26

[Профиль]  [ЛС] 
Показать сообщения:    
Ответить на тему

Текущее время: 19-Ноя 09:38

Часовой пояс: UTC + 5



Вы не можете начинать темы
Вы не можете отвечать на сообщения
Вы не можете редактировать свои сообщения
Вы не можете удалять свои сообщения
Вы не можете голосовать в опросах
Вы не можете прикреплять файлы к сообщениям
Вы не можете скачивать файлы