Угрюм-река (1-4 серии из 4) (Ярополк Лапшин) [1969, драма, DVDRip]

Ответить на тему
 

фазилов ®

Стаж: 3 года 10 месяцев

Сообщений: 310

Симпатии: 344

УГРЮМ-РЕКА (4 серии)
Жанр: Драма
Год выпуска: 1969
Продолжительность: 04:56:33
Режиссёр: Ярополк Лапшин
В ролях: Афанасий Кочетков, Виктор Чекмарев, Георгий Епифанцев, Валентина Владимирова, Гиви Тохадзе, Александр Демьяненко, Валентина Телегина, Людмила Чурсина, Евгений Весник, Иван Рыжов, Даниил Нетребин, Юрий Медведев, Н. Тэн, Н. Бадьев, Владимир Емельянов
Описание: Глухая сибирская тайга, страна купцов, золотодобытчиков, разбойников... В долгое путешествие по Угрюм - реке отправляет купец сына. Многое встретит он в пути - испытание золотом и властью, тяжкую болезнь и безумную страсть. Любовь, ненависть, дружба и предательство - это те круги ада, по которым суждено пройти героям. Один из самых страстных советских фильмов - настоящий эпос о русской душе...

Доп. информация: Четырехсерийная телевизионная (по заказу ЦТ) экранизация одноименного романа В. Шишкова. ("Громовы" - 80 мин., "Анфиса" - 80 мин., "Предательство" - 65 мин. и "Крах" - 72 мин.) Блестяще поставленный и сыгранный (актеры подобраны просто изумительно) черно-белый фильм пользовался и пользуется огромной популярностью. Историю взлета и падения сибирского купца, золотопромышленника и капиталиста Прохора Громова, как и в книге, авторы сумели подать настолько увлекательно, что картина, похоже, не устареет никогда. А как подана любовная линия Анфисы! Пересказать во всех оттенках сюжет невозможно, да и многие, наверняка, смотрели фильм по телевидению, благо пересматривать его можно много раз. Один из шедевров отечественного телесериала . Людмила Чурсина за роль Анфисы была признана лучшей актрисой года.
Качество видео: DVDRip
Формат видео: AVI
Видео: 688x528; 25 fps; XviD MPEG-4;~1132 kbps
Аудио: Оригинал,ATSC/A-52 Dolby AC3; 48000 Hz; 192 Kbps total (2 chnls)

MediaInfo

General
Complete name : D:\Мои релизы\Угрюм-река\Угрюм-река_1 серия.avi
Format : AVI
Format/Info : Audio Video Interleave
File size : 696 MiB
Duration : 1h 19mn
Overall bit rate : 1 220 Kbps
Writing application : VirtualDubMod 1.5.10.1 (build 2366/release)
Writing library : VirtualDubMod build 2366/release
Video
ID : 0
Format : MPEG-4 Visual
Format profile : Advanced [email protected]
Format settings, BVOP : 2
Format settings, QPel : No
Format settings, GMC : No warppoints
Format settings, Matrix : Default (MPEG)
Codec ID : XVID
Codec ID/Hint : XviD
Duration : 1h 19mn
Bit rate : 1 018 Kbps
Width : 688 pixels
Height : 528 pixels
Display aspect ratio : 4:3
Frame rate : 25.000 fps
Color space : YUV
Chroma subsampling : 4:2:0
Bit depth : 8 bits
Scan type : Progressive
Compression mode : Lossy
Bits/(Pixel*Frame) : 0.112
Stream size : 581 MiB (83%)
Writing library : XviD 1.1.0 (UTC 2005-11-22)
Audio
ID : 1
Format : AC-3
Format/Info : Audio Coding 3
Mode extension : CM (complete main)
Format settings, Endianness : Big
Codec ID : 2000
Duration : 1h 19mn
Bit rate mode : Constant
Bit rate : 192 Kbps
Channel(s) : 2 channels
Channel positions : Front: L R
Sampling rate : 48.0 KHz
Bit depth : 16 bits
Compression mode : Lossy
Delay relative to video : 100ms
Stream size : 110 MiB (16%)
Alignment : Split accross interleaves
Interleave, duration : 40 ms (1.00 video frame)
Interleave, preload duration : 500 ms

Скриншот c названием фильма

Скриншоты








Последний раз редактировалось: фазилов (2015-08-23 11:20), всего редактировалось 3 раз(а)

Создавать темы 23-Авг-2015 10:38

[Профиль]  [ЛС] 

фазилов ®

Стаж: 3 года 10 месяцев

Сообщений: 310

Симпатии: 344

Возможны перерывы в раздаче в связи с отключениями электроэнергии mg

Создавать темы 23-Авг-2015 10:50

[Профиль]  [ЛС] 

slay

Стаж: 6 лет 6 месяцев

Сообщений: 31

Симпатии: 1

Шедевр!!!

Создавать темы 24-Авг-2015 23:07

[Профиль]  [ЛС] 
Показать сообщения:    
Ответить на тему

Текущее время: 12-Дек 13:18

Часовой пояс: UTC + 5



Вы не можете начинать темы
Вы не можете отвечать на сообщения
Вы не можете редактировать свои сообщения
Вы не можете удалять свои сообщения
Вы не можете голосовать в опросах
Вы не можете прикреплять файлы к сообщениям
Вы не можете скачивать файлы