Шулер / Сезон: 1 / Серии: 1-10 из 10 (Эдуард Парри) [2013, Драма, Криминал, DVDRip]

Ответить на тему
 

Сергей74 ®

Стаж: 2 года 7 месяцев

Сообщений: 211

Симпатии: 293

Шулер
Год выпуска: 2013
Производство: Россия / Украина "Star Media"
Жанр: Драма, Криминал
Продолжительность: ~ 00:50:00 серия
Режиссёр: Эдуард Парри
В ролях: Антон Феоктистов (Костик), Сергей Сосновский (Замш), Ольга Лерман (Майя), Алексей Горбунов (Балабан), Владимир Карпов (Пинкин), Сергей Алимпиев (Вовчик), Алексей Ведерников (Чита), Екатерина Волкова (Екатерина Андреевна), Юлия Галкина (Алла), Валентин Голубенко (Панас), Людмила Игнатенко (Эсфирь Соломоновна), Анатолий Барбакару (Виконт), Егор Герасимов (Окс)
Описание: Костик Волошин (Антон Феоктистов) – карточный игрок и аферист. Шулер с небольшим, но стажем. В Москве он успел облегчить бумажники нескольких толстосумов. К слову, "наказывает на деньги" Костик не каждого, а лишь тех, кто, по его мнению, это заслужил, и делает это, чаще всего, в соответствии с заветами великого махинатора Остапа Бендера. То есть, чтя уголовный кодекс.
1979 год, СССР накануне Олимпиады. Костик числится младшим научным сотрудником одного из московских НИИ, а вот на жизнь зарабатывает совсем другим. Точнее не на жизнь, а на свою заветную мечту, главную цель – уехать из Советского Союза и увезти с собой маму. И речь идет не о нелюбви к родине. Дело в том, что отец молодого человека уже давным-давно живет за границей. Волошина старшего обвинили в хищении и убийстве, которых он не совершал, поэтому решил бежать. Бежать, спасая свою жизнь и надеясь, что когда-нибудь он сможет вновь вернуться к семье. Костик пообещал матери, что их семья обязательно воссоединится. Однако легально это сделать невозможно, а фальшивые заграничные паспорта, да и сам переезд, обойдутся в круглую сумму. Нужны немалые деньги… И молодой человек и пускается во все тяжкие…

Смотрите оригинал материала на http://www.1tv.ru/cinema/fi=8202
Качество: DVDRip
Формат: H.264/AVC
Видео кодек: AVC/H.264
Аудио кодек: AC3
Видео: AVC/H.264,~1800 Kbps,720x572 (16:9)
Аудио: AC3,2 ch, 192 Kbps
 
ВСЕ скрины и постер залиты в TAS-IX

Краткое описание серий

В РОЛЯХ (ФОТО)

MI

Общее
Уникальный идентификатор : 212106032123093859357424987983276461453 (0x9F9222C80E2CF1958899F40F1754CD8D)
Полное имя : E:\DOWNLOADS\Шулер (2013) DVDRip [H.264]\Шулер - 01 серия.mkv
Формат : Matroska
Версия формата : Version 4 / Version 2
Размер файла : 704 Мбайт
Продолжительность : 49 м.
Общий поток : 2003 Кбит/сек
Дата кодирования : UTC 2014-09-21 10:58:38
Программа кодирования : mkvmerge v6.1.0 ('Old Devil') built on Mar 4 2013 09:10:42
Библиотека кодирования : libebml v1.3.0 + libmatroska v1.4.0
Видео
Идентификатор : 1
Формат : AVC
Формат/Информация : Advanced Video Codec
Профиль формата : [email protected]
Параметр CABAC формата : Да
Параметр ReFrames формата : 8 кадров
Идентификатор кодека : V_MPEG4/ISO/AVC
Продолжительность : 49 м.
Битрейт : 1809 Кбит/сек
Ширина : 720 пикселей
Высота : 572 пикселя
Соотношение сторон : 16:9
Режим частоты кадров : Постоянный
Частота кадров : 25,000 кадров/сек
Цветовое пространство : YUV
Субдискретизация насыщенности : 4:2:0
Битовая глубина : 8 бит
Тип развёртки : Прогрессивная
Бит/(Пиксели*Кадры) : 0.176
Размер потока : 623 Мбайт (88%)
Библиотека кодирования : x264 core 130 r2273 b3065e6
Настройки программы : cabac=1 / ref=8 / deblock=1:-3:-2 / analyse=0x3:0x113 / me=umh / subme=10 / psy=1 / psy_rd=1.00:0.05 / mixed_ref=1 / me_range=32 / chroma_me=1 / trellis=2 / 8x8dct=1 / cqm=0 / deadzone=21,11 / fast_pskip=0 / chroma_qp_offset=-3 / threads=9 / lookahead_threads=1 / sliced_threads=0 / nr=0 / decimate=0 / interlaced=0 / bluray_compat=0 / constrained_intra=0 / bframes=8 / b_pyramid=2 / b_adapt=2 / b_bias=0 / direct=3 / weightb=1 / open_gop=0 / weightp=2 / keyint=240 / keyint_min=24 / scenecut=40 / intra_refresh=0 / rc_lookahead=40 / rc=2pass / mbtree=1 / bitrate=1809 / ratetol=1.0 / qcomp=0.60 / qpmin=0 / qpmax=69 / qpstep=4 / cplxblur=20.0 / qblur=0.5 / ip_ratio=1.40 / aq=1:1.00
Default : Да
Forced : Нет
Аудио
Идентификатор : 2
Формат : AC-3
Формат/Информация : Audio Coding 3
Расширение режима : CM (complete main)
Параметр Endianness формата : Big
Идентификатор кодека : A_AC3
Продолжительность : 49 м.
Вид битрейта : Постоянный
Битрейт : 192 Кбит/сек
Каналы : 2 канала
Расположение каналов : Front: L R
Частота : 48,0 КГц
Битовая глубина : 16 бит
Метод сжатия : С потерями
Размер потока : 67,5 Мбайт (10%)
Default : Да
Forced : Нет

Скриншоты








Последний раз редактировалось: Сергей74 (2015-09-04 21:58), всего редактировалось 8 раз(а)

Создавать темы 23-Авг-2015 22:33

[Профиль]  [ЛС] 

Сергей74 ®

Стаж: 2 года 7 месяцев

Сообщений: 211

Симпатии: 293

aa

Создавать темы 23-Авг-2015 22:40

[Профиль]  [ЛС] 
Показать сообщения:    
Ответить на тему

Текущее время: 24-Ноя 10:52

Часовой пояс: UTC + 5



Вы не можете начинать темы
Вы не можете отвечать на сообщения
Вы не можете редактировать свои сообщения
Вы не можете удалять свои сообщения
Вы не можете голосовать в опросах
Вы не можете прикреплять файлы к сообщениям
Вы не можете скачивать файлы