Инквизитор / Сезон: 1 / Серии: 1-12 из 12 (Юрий Мороз) [2014, детектив, триллер, WEB-DLRip]

Ответить на тему
 

Сергей74 ®

Стаж: 2 года 8 месяцев

Сообщений: 211

Симпатии: 293

Инквизитор
Год выпуска: 2014
Производство: Россия, кинокомпания "Профит"
Жанр: детектив, триллер
Продолжительность: ~ 00:50:00 серия
Режиссёр: Юрий Мороз
В ролях: Виктория Исакова, Александр Лыков, Константин Лавроненко, Николай Козак, Дарья Мороз, Андрей Смоляков, Виктор Вержбицкий, Борис Каморзин, Никита Тезин, Алексей Вертков, Клавдия Коршунова, Александр Голубев, Роман Мадянов, Надежда Маркина, Дмитрий Астрахан, Виталий Коваленко, Максим Стоянов, Любовь Новикова (II), Анна Уколова, Арнис Лицитис, Сергей Легостаев, Алексей Кирсанов, Олег Ребров, Виктор Соловьёв, Александр Голубков, Андрей Межулис, Сергей Миллер, Сергей Неудачин, Леонид Окунев, Татьяна Тимакова, Глеб Пускепалис, Полина Пушкарук, Сергей Шеховцов, Александра Большакова, Александр Числов
Описание: Провинциальный городок на западной границе России потрясает зловещая череда убийств. Некто с жестокостью средневекового инквизитора отправляет на тот свет влиятельных людей, оставляя загадочные послания на латыни. Кто следующий – Инквизитор подсказывает сам, но шанса на спасение не дает. Кажется, что Инквизитор может предугадать каждый шаг следствия, однако петербургская сыщица Наталья Серебрянская готова принять брошенный вызов…
Качество: WEB-DLRip
Формат: AVC
Видео кодек: H.264
Аудио кодек: AC3
Видео: AVC/H.264, 720х400 (16:9), ~ 1116 kbps
Аудио: AC3, 2 ch, 192 kbps, CBR
 
ВСЕ скрины и постер залиты в TAS-IX

В РОЛЯХ

MI

Общее
Уникальный идентификатор : 222710556471977613769838251128902945293 (0xA78C7E32E4641AC89A372ABF14588A0D)
Полное имя : D:\Инквизитор\01 серия.mkv
Формат : Matroska
Версия формата : Version 2
Размер файла : 505 Мбайт
Продолжительность : 52 м.
Общий поток : 1334 Кбит/сек
Дата кодирования : UTC 2015-08-09 01:37:40
Программа кодирования : mkvmerge v7.8.0 ('River Man') 32bit built on Apr 3 2015 12:11:22
Библиотека кодирования : libebml v1.3.1 + libmatroska v1.4.2
Видео
Идентификатор : 1
Формат : AVC
Формат/Информация : Advanced Video Codec
Профиль формата : [email protected]
Параметр CABAC формата : Да
Параметр ReFrames формата : 9 кадров
Идентификатор кодека : V_MPEG4/ISO/AVC
Продолжительность : 52 м.
Битрейт : 1116 Кбит/сек
Ширина : 720 пикселей
Высота : 400 пикселей
Соотношение сторон : 16:9
Режим частоты кадров : Постоянный
Частота кадров : 25,000 кадров/сек
Цветовое пространство : YUV
Субдискретизация насыщенности : 4:2:0
Битовая глубина : 8 бит
Тип развёртки : Прогрессивная
Бит/(Пиксели*Кадры) : 0.155
Размер потока : 423 Мбайт (84%)
Библиотека кодирования : x264 core 146 r2538 121396c
Настройки программы : cabac=1 / ref=9 / deblock=1:-3:-3 / analyse=0x3:0x133 / me=umh / subme=9 / psy=1 / psy_rd=1.00:0.10 / mixed_ref=1 / me_range=16 / chroma_me=1 / trellis=2 / 8x8dct=1 / cqm=0 / deadzone=21,11 / fast_pskip=0 / chroma_qp_offset=-3 / threads=6 / lookahead_threads=1 / sliced_threads=0 / nr=0 / decimate=1 / interlaced=0 / bluray_compat=0 / constrained_intra=0 / bframes=9 / b_pyramid=2 / b_adapt=2 / b_bias=0 / direct=3 / weightb=1 / open_gop=0 / weightp=2 / keyint=250 / keyint_min=25 / scenecut=40 / intra_refresh=0 / rc_lookahead=50 / rc=crf / mbtree=1 / crf=18.0 / qcomp=0.60 / qpmin=0 / qpmax=69 / qpstep=4 / ip_ratio=1.40 / aq=1:1.00
Default : Да
Forced : Нет
Цветовой диапазон : Limited
Основные цвета : BT.709
Характеристики трансфера : BT.709
Коэффициенты матрицы : BT.709
Аудио
Идентификатор : 2
Формат : AC-3
Формат/Информация : Audio Coding 3
Расширение режима : CM (complete main)
Параметр Endianness формата : Big
Идентификатор кодека : A_AC3
Продолжительность : 52 м.
Вид битрейта : Постоянный
Битрейт : 192 Кбит/сек
Каналы : 2 канала
Расположение каналов : Front: L R
Частота : 44,1 КГц
Метод сжатия : С потерями
Размер потока : 72,7 Мбайт (14%)
Default : Да
Forced : Нет

Скриншоты






Последний раз редактировалось: Сергей74 (2015-09-04 21:58), всего редактировалось 3 раз(а)

Создавать темы 25-Авг-2015 02:18

[Профиль]  [ЛС] 

Сергей74 ®

Стаж: 2 года 8 месяцев

Сообщений: 211

Симпатии: 293

aa


Последний раз редактировалось: Сергей74 (2015-09-14 01:42), всего редактировалось 1 раз

Создавать темы 25-Авг-2015 02:21

[Профиль]  [ЛС] 

Лекс

Стаж: 5 лет

Сообщений: 31

Нормальный такой сериальчик!!!!

Создавать темы 06-Сен-2015 00:44

[Профиль]  [ЛС] 

shuh2004

Стаж: 6 лет

Сообщений: 41

Симпатии: 8

рекомендую ! отл.сериаль ! респект

Создавать темы 20-Дек-2015 18:45

[Профиль]  [ЛС] 
Показать сообщения:    
Ответить на тему

Текущее время: 15-Дек 05:37

Часовой пояс: UTC + 5



Вы не можете начинать темы
Вы не можете отвечать на сообщения
Вы не можете редактировать свои сообщения
Вы не можете удалять свои сообщения
Вы не можете голосовать в опросах
Вы не можете прикреплять файлы к сообщениям
Вы не можете скачивать файлы