Ползучий Хаос! Няруко-сан (ТВ-2) / Haiyore! Nyaruko-san W (Нагасава Цуёси) [TV] [12 из 12] [без хардсаба] [RUS(ext), JAP+SUB] [2013 г., комедия, пародия, BDRip] [720p]

Ответить на тему
 

LikeSmile ®

Стаж: 4 года 7 месяцев

Сообщений: 298

Симпатии: 48

-- Год выпуска: 2013
Страна: Япония
Жанр: приключения, комедия, пародия
Продолжительность: 12 эп. по 25 мин.--Перевод:
  • русские субтитры от Yakusub Studio (полные / вспомогательные)
Озвучка:
  • одноголосая (муж.) от JAM
--Режиссер: Нагасава Цуёси
Автор оригинала: Айсора Манта
Студия: Xebec-На данном трекере имеется:
Haiyore! Nyaruko-san TV-1
Haiyore! Nyaruko-san W TV-2
Haiyore! Nyaruko-san W OVA

Haiyore! Nyaruko-san F OVA--Описание:
Земля – единственная во Вселенной планета, жители которой постоянно изобретают что-то новое, а жители дальнего космоса лишь развивают земные идеи в собственной индустрии развлечений. Такой ценный ресурс надо охранять от шпионажа и пиратства, чем и занимается галактический Интерпол. Одна из лучших команд службы охраны Земли держит базу в доме японского школьника Махиро Ясаки. Народ там собрался из мифов Ктулху, опытный и бывалый – ползучий хаос Ньярлатотеп в облике платиновой блондинки Няруко, огненный бог Ктугха превратился в рыжую милашку Куко, а Черный Вихрь Хастур для разнообразия стал кавайным мальчиком. Все бы хорошо, но герои слишком уж погрузились в образ!
И какая тут, скажите, служба, если красотка Няруко творит настоящую романтическую агрессию в отношении бедняги Махиро, Куко, влюбленная в Няруко, вовсе не возражает против шведской семьи, а малыш Хаста только все запутывает?! Юный хозяин дома вынужден надеяться лишь на верный набор вилок, кидать которые выучился у матери, оказавшейся одновременно игровым дизайнером и охотницей на демонов. Несчастному Махиро нигде нет покоя, одна радость – ходить вместе с новыми друзьями «на дело». Во-первых, интересно, во-вторых, лишь там Древние могут отвлечься и направить лишнюю энергию в общественно полезное русло!
© Hollow, World Art--Дополнительную информацию можете найти на: AniDB || WA || MAL--Качество: BDRip
Энкод: Yousei-raws | #[email protected] rizon. net
Тип видео: без хардсаба
Формат: mkv
Видео: x264 (Hi10p), 1280x720, ~2500 Kbps, 23.976 fps
Аудио JAP: Vorbis, 48000Hz, 256 Kbps, 2ch
Аудио RUS: AC3, 48000Hz, ~192 Kbps, 2ch--

Media Info

General
Unique ID                   : 198350550438120278168023179708321111453 (0x9538ED2C50B28B25A0870F81EBDA1D9D)
Complete name               : J:\Anime [Скачано с торрентов]\Haiyore! Nyaruko-san-W [BD] [720p]\[Winter] Haiyore! Nyaruko-san W 01 [BDrip 1280x720 x264 Vorbis].mkv
Format                      : Matroska
Format version              : Version 4 / Version 2
File size                   : 502 MiB
Duration                    : 24mn 26s
Overall bit rate mode       : Variable
Overall bit rate            : 2 873 Kbps
Encoded date                : UTC 2015-08-21 09:22:15
Writing application         : mkvmerge v7.8.0 ('River Man') 64bit built on Mar 27 2015 16:31:37
Writing library             : libebml v1.3.1 + libmatroska v1.4.2
DURATION                    : 00:24:26.149000000
NUMBER_OF_FRAMES            : 137979
NUMBER_OF_BYTES             : 43818505
_STATISTICS_WRITING_APP     : mkvmerge v7.8.0 ('River Man') 64bit built on Mar 27 2015 16:31:37
_STATISTICS_WRITING_DATE_UT : 2015-08-21 09:22:15
_STATISTICS_TAGS            : BPS DURATION NUMBER_OF_FRAMES NUMBER_OF_BYTES
Video
ID                          : 1
Format                      : AVC
Format/Info                 : Advanced Video Codec
Format profile              : High [email protected]
Format settings, CABAC      : Yes
Format settings, ReFrames   : 9 frames
Codec ID                    : V_MPEG4/ISO/AVC
Duration                    : 24mn 26s
Bit rate                    : 2 560 Kbps
Width                       : 1 280 pixels
Height                      : 720 pixels
Display aspect ratio        : 16:9
Frame rate mode             : Constant
Frame rate                  : 23.976 fps
Color space                 : YUV
Chroma subsampling          : 4:2:0
Bit depth                   : 10 bits
Scan type                   : Progressive
Bits/(Pixel*Frame)          : 0.116
Stream size                 : 447 MiB (89%)
Writing library             : x264 core 132 r2309 3b1f1f7
Encoding settings           : cabac=1 / ref=9 / deblock=1:-2:-2 / analyse=0x3:0x133 / me=umh / subme=9 / psy=1 / psy_rd=0.90:0.00 / mixed_ref=1 / me_range=24 / chroma_me=1 / trellis=2 / 8x8dct=1 / cqm=0 / deadzone=21,11 / fast_pskip=1 / chroma_qp_offset=-2 / threads=6 / lookahead_threads=1 / sliced_threads=0 / nr=0 / decimate=0 / interlaced=0 / bluray_compat=0 / constrained_intra=0 / bframes=8 / b_pyramid=2 / b_adapt=2 / b_bias=0 / direct=1 / weightb=1 / open_gop=0 / weightp=2 / keyint=250 / keyint_min=23 / scenecut=40 / intra_refresh=0 / rc=crf / mbtree=0 / crf=15.7 / qcomp=0.70 / qpmin=9 / qpmax=40 / qpstep=4 / ip_ratio=1.40 / pb_ratio=1.30 / aq=1:0.90
Default                     : No
Forced                      : No
DURATION                    : 00:24:26.132000000
NUMBER_OF_FRAMES            : 35152
NUMBER_OF_BYTES             : 482147094
_STATISTICS_WRITING_APP     : mkvmerge v7.8.0 ('River Man') 64bit built on Mar 27 2015 16:31:37
_STATISTICS_WRITING_DATE_UT : 2015-08-21 09:22:15
_STATISTICS_TAGS            : BPS DURATION NUMBER_OF_FRAMES NUMBER_OF_BYTES
Audio
ID                          : 2
Format                      : Vorbis
Format settings, Floor      : 1
Codec ID                    : A_VORBIS
Duration                    : 24mn 26s
Bit rate mode               : Variable
Bit rate                    : 256 Kbps
Channel(s)                  : 2 channels
Sampling rate               : 48.0 KHz
Compression mode            : Lossy
Stream size                 : 44.7 MiB (9%)
Writing library             : libVorbis (Schaufenugget) (20101101 (Schaufenugget))
Language                    : Japanese
Default                     : No
Forced                      : No
-

Скриншоты





Создавать темы 25-Авг-2015 19:23

[Профиль]  [ЛС] 
Показать сообщения:    
Ответить на тему

Текущее время: 15-Дек 15:22

Часовой пояс: UTC + 5



Вы не можете начинать темы
Вы не можете отвечать на сообщения
Вы не можете редактировать свои сообщения
Вы не можете удалять свои сообщения
Вы не можете голосовать в опросах
Вы не можете прикреплять файлы к сообщениям
Вы не можете скачивать файлы