Чародей / Spellbinder / Сезон: 1 / Серии: 1-26 из 26 (Ноэль Прайс) [1995, фантастика, фэнтези, приключения, семейный, DVDRip] (MVO: Петербург 5 канал)

Ответить на тему
 

Alex Dancer ®

Стаж: 5 лет 10 месяцев

Сообщений: 181

Симпатии: 21

--Чародей / Spellbinder-- Год выпуска: 1995
Страна: Австралия, Польша
Жанр: фантастика, фэнтези, приключения, семейный
Продолжительность: ~25 мин. на серию
Перевод: Профессиональный (многоголосый закадровый) (Петербург 5 канал)
Режиссёр: Ноэль Прайс-В ролях: Збых Трофимюк, Гося Петровска, Брайан Руни, Микела Нунан, Хезер Митчелл, Рафал Звеж, Кжиштоф Кумор, Эндрю МакФарлэйн, Анджей Грабарчик, Джорджина Фишер, ...-Описание: Группа тинейджеров отправляется в лагерь, чтобы наблюдать солнечное затмение. Учитель показывает им пещеру, в которой по ночам появляются странные вспышки света. Ночью Пол и Алекс пытаются напугать одноклассницу Катрину и её подругу, протянув возле линии электропередач стальной провод, по которому Пол, как призрак, должен спуститься в простыне.
В результате короткого замыкания образовывается портал и Пол случайно попадает в параллельный мир, где правит группа людей, именуемых Чародеями. Чародеи обладают научными знаниями, которые они выдают необразованным крестьянам за волшебство. Чтобы снова попасть домой, Полу придётся доказать что он из другого мира и преодолеть множество трудностей, пройти которые ему поможет Риана - девочка из мира Чародеев.-Качество: DVDRip
Формат: AVI
Видео кодек: DivX
Аудио кодек: MP3
Видео: 704x528 (4:3), 25.000 fps, ~2000 kbps, ~0.215 bit/pixel
Аудио: 48 kHz, 2 ch, ~192 kbps--

MediaInfo

General
Format : AVI
Format/Info : Audio Video Interleave
File size : 395 MiB
Duration : 25mn 4s
Overall bit rate : 2 205 Kbps
Writing application : VirtualDubMod 1.5.10.3 | www.virtualdub-fr.org || (build 2550/release)
Writing library : VirtualDubMod build 2550/release
Video
ID : 0
Format : MPEG-4 Visual
Format profile : Advanced [email protected]
Format settings, BVOP : 2
Format settings, QPel : No
Format settings, GMC : No warppoints
Format settings, Matrix : Default (MPEG)
Codec ID : XVID
Codec ID/Hint : XviD
Duration : 25mn 4s
Bit rate : 2 004 Kbps
Width : 704 pixels
Height : 528 pixels
Display aspect ratio : 4:3
Frame rate : 25.000 fps
Color space : YUV
Chroma subsampling : 4:2:0
Bit depth : 8 bits
Scan type : Progressive
Compression mode : Lossy
Bits/(Pixel*Frame) : 0.216
Stream size : 359 MiB (91%)
Writing library : XviD 65
Audio
ID : 1
Format : MPEG Audio
Format version : Version 1
Format profile : Layer 3
Codec ID : 55
Codec ID/Hint : MP3
Duration : 25mn 4s
Bit rate mode : Constant
Bit rate : 192 Kbps
Channel(s) : 2 channels
Sampling rate : 48.0 KHz
Compression mode : Lossy
Stream size : 34.4 MiB (9%)
Alignment : Aligned on interleaves
Interleave, duration : 40 ms (1.00 video frame)
Interleave, preload duration : 504 ms
Writing library : LAME3.99r
Encoding settings : -m s -V 4 -q 0 -lowpass 18.6 -b 192

Скриншоты



Внимание! Раздача ведётся путём добавления новых серий

Внимание! Раздача ведётся путём добавления новых серий;
При каждом добавлении создаётся новый торрент. Чтобы начать докачку новой серии, пользователям необходимо сделать следующее:
(1) остановить скачивание,
(2) удалить старый торрент у себя из клиента (старые серии удалять не надо),
(3) скачать новый торрент и запустить его у себя в клиенте вместо старого, при этом указать клиенту путь в старую папку куда и должно происходить скачивание новых серий.
Ваш клиент при этом должен произвести хеширование (проверку) старой папки (если не производит сам - помогите ему сделать это), и будет докачивать только те серии которых у вас ещё нет. Старые серии при этом не удаляются, а продолжают раздаваться!
Eсли вы уже удалили старые серии, то предотвратить повторную закачку старых серий можно, отжав галочку в соответствующих местах при запуске нового торрента. По возможности, желательно не удалять старые серии как можно дольше чтобы релизёр не столько продолжал раздавать старые серии, а смог сконцентрироваться на новых.


Последний раз редактировалось: Alex Dancer (2015-08-30 09:37), всего редактировалось 4 раз(а)

Создавать темы 26-Авг-2015 02:02

[Профиль]  [ЛС] 

Alex Dancer ®

Стаж: 5 лет 10 месяцев

Сообщений: 181

Симпатии: 21

Решил скачать и пересмотреть сериал из детства. Если будут желающие качать, то выложу остальные серии.

Создавать темы 26-Авг-2015 02:06

[Профиль]  [ЛС] 

Alex Dancer ®

Стаж: 5 лет 10 месяцев

Сообщений: 181

Симпатии: 21

=== Добавил со 2 по 23ю серии. === Сегодня ночью докачаю оставшиеся 3 серии...

Создавать темы 29-Авг-2015 20:07

[Профиль]  [ЛС] 

Alex Dancer ®

Стаж: 5 лет 10 месяцев

Сообщений: 181

Симпатии: 21

== Добавил 24-26 серии ==Первый сезон в полной комплектации!Качаем! Наслаждаемся!

Создавать темы 30-Авг-2015 09:36

[Профиль]  [ЛС] 

lector_87

Стаж: 3 года 9 месяцев

Сообщений: 391

Симпатии: 348

949010== Добавил 24-26 серии ==Первый сезон в полной комплектации!Качаем! Наслаждаемся!
а что есть и другие сезоны

Создавать темы 30-Авг-2015 11:38

[Профиль]  [ЛС] 

shadow91

Стаж: 6 лет 7 месяцев

Сообщений: 60

Да еще есть Чародей, Страна великого дракона. куда интересней первого сезона
еще если кто помнит, был сериал грозовые камни)
могу скинуть кому нужно )

Создавать темы 30-Авг-2015 15:15

[Профиль]  [ЛС] 

Alex Dancer ®

Стаж: 5 лет 10 месяцев

Сообщений: 181

Симпатии: 21

Страна великого дракона - 2й сезон. Как раз поставил в очередь на закачку. Через 2 недели выложу. На найтлайфе сильно не разбежишься.

Создавать темы 30-Авг-2015 19:19

[Профиль]  [ЛС] 

Alex Dancer ®

Стаж: 5 лет 10 месяцев

Сообщений: 181

Симпатии: 21

Говнолайновские работнички наконец-то починили мне линию. Канал отдачи теперь стал в полный мегабит.
Отключил все старые раздачи, и весь канал идёт сюда.

Создавать темы 07-Сен-2015 14:02

[Профиль]  [ЛС] 
Показать сообщения:    
Ответить на тему

Текущее время: 19-Ноя 21:13

Часовой пояс: UTC + 5



Вы не можете начинать темы
Вы не можете отвечать на сообщения
Вы не можете редактировать свои сообщения
Вы не можете удалять свои сообщения
Вы не можете голосовать в опросах
Вы не можете прикреплять файлы к сообщениям
Вы не можете скачивать файлы