Ползучий Хаос! Няруко-сан (ТВ-2) / Haiyore! Nyaruko-san W (Нагасава Цуёси) [OVA] [1 из 1] [без хардсаба] [RUS(ext), JAP+SUB] [2014 г., комедия, этти, пародия, DVDRip] [480p]

Ответить на тему
 

LikeSmile ®

Стаж: 4 года 5 месяцев

Сообщений: 298

Симпатии: 48

-- Год выпуска: 2014
Страна: Япония
Жанр: комедия, этти, пародия
Продолжительность: 1 эп. по 15 мин.--Перевод:
  • русские субтитры от Yakusub Studio (полные / вспомогательные)
Озвучка:
  • двуголосая (муж./жен.) от Nyasheek & Lizaveta (Shiza Project)
--Режиссер: Нагасава Цуёси
Автор оригинала: Айсора Манта
Студия: Xebec-На данном трекере имеется:
Haiyore! Nyaruko-san TV-1
Haiyore! Nyaruko-san W TV-2
Haiyore! Nyaruko-san W OVA
Haiyore! Nyaruko-san F OVA--Описание:
По миру из древне ходят легенды и мифы о высших силах, вот только некоторые из них стали религиями, а некоторые, почти канули в лету. В любом случае никому из ныне живущих эти силы, даже мельком видеть не доводилось, а вот японскому школьнику Ясо Кабахиро свезло, так свезло, ведь на него свалился не один, а целых три мифических божка из самих мифов Ктулху! В целях защиты от тайной межпланетной организации в дом к Ясо заселилась очаровательная богиня Хаоса Ньяруак Хотеп, следом за которой один за другим у него дома обосновались богиня лесбиянка Ктукха и женоподобный скромняга Хастур. Как быть Ясо с такими соседями, ведь, как ни крути, а спорить с богами дело не из лёгких. Тем более цель у вторженцев благородная, спасти Землю вместе со всеми её прекрасными развлечениями, так что остаётся бедному парню лишь помочь инопланетным гостям в их не лёгком стремлении и молится, чтобы они поскорее свалили из его жизни. Ну а что же из этого выйдет, время покажет…
© Oni, Shiza--Дополнительную информацию можете найти на: AniDB || WA || MAL--Качество: DVDRip
Энкод: ReinForce
Тип видео: без хардсаба
Формат: mkv
Видео: x264, 852x480, ~1600 Kbps, 23.976 fps
Аудио JAP: AC3, 48000Hz, 192 Kbps, 2ch
Аудио RUS: AAC, 48000Hz, ~192 Kbps, 2ch--

Media Info

General
Unique ID                   : 189882689958979007576965603390219395651 (0x8EDA136AFD4CE495AF535731B650A243)
Complete name               : J:\Anime [Скачано с торрентов]\Haiyore! Nyaruko-san W OVA [DVD] [480p]\[ReinForce] Haiyore! Nyaruko-san W OVA (DVDRip 852x480 x264 AC-3).mkv
Format                      : Matroska
Format version              : Version 4 / Version 2
File size                   : 208 MiB
Duration                    : 15mn 23s
Overall bit rate            : 1 886 Kbps
Movie name                  :  Haiyore! Nyaruko-san W OVA
Encoded date                : UTC 2015-08-26 17:48:21
Writing application         : mkvmerge v7.8.0 ('River Man') 64bit built on Mar 27 2015 16:31:37
Writing library             : libebml v1.3.1 + libmatroska v1.4.2
DURATION                    : 00:15:22.848000000
NUMBER_OF_FRAMES            : 28839
NUMBER_OF_BYTES             : 22148352
_STATISTICS_WRITING_APP     : mkvmerge v7.8.0 ('River Man') 64bit built on Mar 27 2015 16:31:37
_STATISTICS_WRITING_DATE_UT : 2015-08-26 17:48:21
_STATISTICS_TAGS            : BPS DURATION NUMBER_OF_FRAMES NUMBER_OF_BYTES
Video
ID                          : 1
Format                      : AVC
Format/Info                 : Advanced Video Codec
Format profile              : [email protected]
Format settings, CABAC      : Yes
Format settings, ReFrames   : 4 frames
Codec ID                    : V_MPEG4/ISO/AVC
Duration                    : 15mn 23s
Bit rate                    : 1 656 Kbps
Width                       : 852 pixels
Height                      : 480 pixels
Display aspect ratio        : 16:9
Frame rate mode             : Constant
Frame rate                  : 23.976 fps
Color space                 : YUV
Chroma subsampling          : 4:2:0
Bit depth                   : 8 bits
Scan type                   : Progressive
Bits/(Pixel*Frame)          : 0.169
Stream size                 : 182 MiB (88%)
Writing library             : x264 core 142
Encoding settings           : opencl=1 / cabac=1 / ref=4 / deblock=1:-2:-2 / analyse=0x3:0x113 / me=umh / subme=9 / psy=1 / psy_rd=0.70:0.00 / mixed_ref=0 / me_range=32 / chroma_me=1 / trellis=2 / 8x8dct=1 / cqm=0 / deadzone=21,11 / fast_pskip=1 / chroma_qp_offset=-2 / threads=8 / lookahead_threads=1 / sliced_threads=0 / nr=0 / decimate=1 / interlaced=0 / bluray_compat=0 / constrained_intra=0 / bframes=9 / b_pyramid=2 / b_adapt=2 / b_bias=0 / direct=3 / weightb=1 / open_gop=0 / weightp=2 / keyint=250 / keyint_min=23 / scenecut=40 / intra_refresh=0 / rc_lookahead=40 / rc=crf / mbtree=1 / crf=16.0 / qcomp=0.70 / qpmin=10 / qpmax=20 / qpstep=4 / ip_ratio=1.40 / aq=1:1.00
Language                    : Japanese
Default                     : Yes
Forced                      : No
Audio
ID                          : 2
Format                      : AC-3
Format/Info                 : Audio Coding 3
Mode extension              : CM (complete main)
Format settings, Endianness : Big
Codec ID                    : A_AC3
Duration                    : 15mn 23s
Bit rate mode               : Constant
Bit rate                    : 192 Kbps
Channel(s)                  : 2 channels
Channel positions           : Front: L R
Sampling rate               : 48.0 KHz
Compression mode            : Lossy
Stream size                 : 21.1 MiB (10%)
Language                    : Japanese
Default                     : No
Forced                      : No
-

Скриншоты





Создавать темы 27-Авг-2015 02:49

[Профиль]  [ЛС] 
Показать сообщения:    
Ответить на тему

Текущее время: 24-Окт 09:13

Часовой пояс: UTC + 5



Вы не можете начинать темы
Вы не можете отвечать на сообщения
Вы не можете редактировать свои сообщения
Вы не можете удалять свои сообщения
Вы не можете голосовать в опросах
Вы не можете прикреплять файлы к сообщениям
Вы не можете скачивать файлы