Вне/себя / Self/less (Тарсем Сингх) [2015, США, фантастика, триллер, детектив, WEB-DLRip](Dub [iTunes])

Ответить на тему
 

victor0778 ®

Стаж: 6 лет 9 месяцев

Сообщений: 1670

Симпатии: 142

Вне/себя / Self/less«У бессмертия есть побочные эффекты»-
Год выхода: 2015
Выпущено: США / Endgame Entertainment, Ram Bergman Productions
Жанр: фантастика, триллер, детектив
Продолжительность: 01:52:12
Озвучивание: Дублированное [iTunes]
Режиссер: Тарсем Сингх
В ролях: Райан Рейнольдс / Ryan Reynolds (Young Damian), Бен Кингсли / Ben Kingsley (Damian), Натали Мартинес / Natalie Martinez (Madeline), Мэттью Гуд / Matthew Goode (Albright), Виктор Гарбер / Victor Garber (Martin), Дерек Люк / Derek Luke (Anton), Джейни-Линн Кинчен / Jaynee-Lynne Kinchen (Anna), Мелора Хардин / Melora Hardin (Judy)
О фильме: В будущем становится возможным победить смерть с помощью имплантации своего сознания в молодое тело, созданное методом генной инженерии. Операция эта дорогостоящая и проводится подпольно, а поэтому доступна лишь ограниченному кругу лиц. Умирающий пожилой бизнесмен решается на это и получает возможность прожить еще одну жизнь. Однако когда ему приоткрывается тайна происхождения нового тела, за ним начинает охоту секретная организация, которая не остановится ни перед чем, чтобы защитить свои интересы.--Качество: WEB-DLRip
Формат: AVI
Видео кодек: XviD
Аудио кодек: AC3
Видео: 720x400 (16:9), 25.000 fps, XviD, 1 522 Kbps
Аудио: AC3, 384 Kbps, 48.0 KHz, 6 ch

МедиаИнфо

General
Complete name                    : 7elf1ess.2015.D.WEB-DLRip.avi
Format                           : AVI
Format/Info                      : Audio Video Interleave
File size                        : 1.46 GiB
Duration                         : 1h 52mn
Overall bit rate                 : 1 864 Kbps
Writing application              : VirtualDubMod 1.5.10.3 | www.virtualdub-fr.org || (build 2550/release)
Writing library                  : VirtualDubMod build 2550/release
Video
ID                               : 0
Format                           : MPEG-4 Visual
Codec ID                         : XVID
Codec ID/Hint                    : XviD
Duration                         : 1h 8mn
Bit rate                         : 1 522 Kbps
Width                            : 720 pixels
Height                           : 400 pixels
Display aspect ratio             : 16:9
Frame rate                       : 25.000 fps
Color space                      : YUV
Chroma subsampling               : 4:2:0
Bits/(Pixel*Frame)               : 0.211
Stream size                      : 746 MiB (50%)
Audio
ID                               : 1
Format                           : AC-3
Format/Info                      : Audio Coding 3
Codec ID                         : 2000
Duration                         : 1h 52mn
Bit rate mode                    : Constant
Bit rate                         : 384 Kbps
Channel(s)                       : 6 channels
Sampling rate                    : 48.0 KHz
Stream size                      : 188 MiB (13%)
Alignment                        : Aligned on interleaves
Interleave, duration             : 40 ms (1.00 video frame)
Interleave, preload duration     : 500 ms

Скриншоты





Последний раз редактировалось: victor0778 (2015-11-20 20:28), всего редактировалось 4 раз(а)

Создавать темы 27-Авг-2015 07:33

[Профиль]  [ЛС] 

victor0778 ®

Стаж: 6 лет 9 месяцев

Сообщений: 1670

Симпатии: 142

модераторы можно прилепить, а то фильм то суперский

Создавать темы 27-Авг-2015 07:34

[Профиль]  [ЛС] 

axeman

Стаж: 5 лет

Сообщений: 380

Симпатии: 50

948629модераторы можно прилепить, а то фильм то суперский
да фильм нормальный

Создавать темы 27-Авг-2015 21:41

[Профиль]  [ЛС] 

Rolex

Стаж: 5 лет 9 месяцев

Сообщений: 59

Симпатии: 11

Отличный фильм. Спасибо.

Создавать темы 29-Авг-2015 17:32

[Профиль]  [ЛС] 

elmar

Стаж: 6 лет 10 месяцев

Сообщений: 44

Симпатии: 4

фильм что надо.

Создавать темы 30-Авг-2015 08:22

[Профиль]  [ЛС] 

Григорий К

Стаж: 5 лет 2 месяца

Сообщений: 569

Симпатии: 284

Сюжет интересный. Но на один просмотр. Зато КАКОЙ просмотр! Фильм увлекает своим развитием, заставляет смотреть до самого конца на одном дыхании. А потом можно и удалить)
Для однократного просмотра полных 10 баллов. Для повторного пятёрочка)

Создавать темы 07-Сен-2015 10:49

[Профиль]  [ЛС] 

napaleon

Стаж: 6 лет 4 месяца

Сообщений: 7

Симпатии: 2

Фильм классный!!!

Создавать темы 13-Сен-2015 13:38

[Профиль]  [ЛС] 

Putin

Стаж: 5 лет 1 месяц

Сообщений: 83

Симпатии: 8

Хороший фильм. Но предсказуемый почти во всем... Сюжет с самого начало ясен до конца :) но все равно спасибо

Создавать темы 15-Сен-2015 19:19

[Профиль]  [ЛС] 

EPMAK

Стаж: 2 года 7 месяцев

Сообщений: 255

Симпатии: 179

фильм супер

Создавать темы 23-Окт-2015 12:07

[Профиль]  [ЛС] 

sunny32

Стаж: 4 года 1 месяц

Сообщений: 52

Симпатии: 8

Отличный сюжет и игра актеров. Фантастика очень похожа на жизнь в реале.

Создавать темы 18-Сен-2016 18:55

[Профиль]  [ЛС] 

Valera68

Стаж: 1 год 8 месяцев

Сообщений: 12

Фантастика в реале! Просмотрел с удовольствием.

Создавать темы 06-Апр-2017 18:09

[Профиль]  [ЛС] 
Показать сообщения:    
Ответить на тему

Текущее время: 22-Ноя 21:48

Часовой пояс: UTC + 5



Вы не можете начинать темы
Вы не можете отвечать на сообщения
Вы не можете редактировать свои сообщения
Вы не можете удалять свои сообщения
Вы не можете голосовать в опросах
Вы не можете прикреплять файлы к сообщениям
Вы не можете скачивать файлы