Баксвиль / Bucksville (Чел Уайт) [2011, США, драма, триллер, DVDRip] (MVO)

Ответить на тему
 

Azamchikbest ®

Стаж: 2 года 4 месяца

Сообщений: 19

Симпатии: 34

Баксвиль / Bucksville Страна: США
Жанр: драма, триллер
Год выпуска: 2011
Продолжительность: 01:45:08
Перевод: Любительский (многоголосый закадровый)
Cубтитры: нет
Режиссер: Чел Уайт
В ролях: Дэвид Бодин, Тед Руни, Том Беренджер, Аллен Ноз, Александр Маккензи, Райан Финдли, Пол Глэйзер
Описание: Пресли Алан Френч, ребенок которого в раннем детстве бросила мать. Эта женщина просто оставила малыша и исчезла в неизвестном направлении. Отцу тоже особо некогда было заниматься воспитанием сына. Он больше уделял времени своим делам. Дело в том, что мужчина тайно организовал отряд ополчения. Мужчине во всем помогал его двоюродный брат, который поддерживает всего его идеи народного правосудия. Они стремятся наказывать всех преступников, которые заслуживают наказания, но по каким-то причинам им удается избежать его. Тайный отряд возлагает на себя подчас немыслимые задачи. К примеру, всего за последние несколько лет, члены этой организации линчевали в лесу около 20 человек. Все это они делают для того, чтобы навести порядок в обществе и ради спокойствия простых граждан. Однако коррумпированные представители власти не могут допустить, чтобы некая организация занималась самосудом, тем более что банде может быть известна такая информация, которую обнародовать никак нельзя. На охоту за народными мстителями выходит лидер новой американской революции. Пресли, который к этому времени стал взрослым самостоятельным человеком встал на пороге решающего его судьбу выбора. Что выбрать, семейные узы или предать дело отца, которому он посвятил всю свою жизнь. Неужели герой станет пособником в организации заказных политических убийств? Молодой человек оказался в таком положении, что совет матери сейчас ему пришелся бы очень кстати.
Качество видео: DVDRip
Формат видео: AVI
Видео: 720x480, 1 631 Kbps, 23.976 fps
Аудио: AAC, 128 Kbps, 44.1 KHz, (2ch)

MediaInfo

General
Complete name : D:\KINO\06. Bucksville.2014 (1).avi
Format : AVI
Format/Info : Audio Video Interleave
Format profile : OpenDML
File size : 1.30 GiB
Duration : 1h 45mn
Overall bit rate mode : Variable
Overall bit rate : 1 775 Kbps
Writing application : Lavf55.12.100
Video
ID : 1
Format : AVC
Format/Info : Advanced Video Codec
Format profile : [email protected]
Format settings, CABAC : Yes
Format settings, ReFrames : 2 frames
Format settings, GOP : N=1
Codec ID : H264
Duration : 1h 45mn
Bit rate : 1 631 Kbps
Width : 720 pixels
Height : 480 pixels
Display aspect ratio : 3:2
Frame rate mode : Variable
Frame rate : 23.976 fps
Standard : NTSC
Color space : YUV
Chroma subsampling : 4:2:0
Bit depth : 8 bits
Scan type : Progressive
Bits/(Pixel*Frame) : 0.197
Stream size : 1.20 GiB (92%)
Audio
ID : 0
Format : AAC
Format/Info : Advanced Audio Codec
Format version : Version 2
Format profile : LC
Muxing mode : ADTS
Codec ID : FF
Duration : 1h 45mn
Bit rate mode : Variable
Bit rate : 128 Kbps
Minimum bit rate : 56.3 Kbps
Maximum bit rate : 250 Kbps
Channel(s) : 2 channels
Channel positions : Front: L R
Sampling rate : 44.1 KHz
Compression mode : Lossy
Stream size : 96.3 MiB (7%)
Alignment : Aligned on interleaves
Interleave, duration : 42 ms (1.00 video frame)

Скриншоты





Последний раз редактировалось: Azamchikbest (2015-08-31 13:35), всего редактировалось 3 раз(а)

Создавать темы 27-Авг-2015 12:17

[Профиль]  [ЛС] 

Mixer City

Стаж: 6 лет 9 месяцев

Сообщений: 754

Симпатии: 63

Azamchikbest, скрины по правилам сделай: https://tas-ix.net/viewtopic.php?t=41311

Создавать темы 31-Авг-2015 01:32

[Профиль]  [ЛС] 

victor0778

Стаж: 6 лет 8 месяцев

Сообщений: 1670

Симпатии: 142

качество указано неверно, тех. данные не верные и формат поправь

Создавать темы 31-Авг-2015 02:08

[Профиль]  [ЛС] 
Показать сообщения:    
Ответить на тему

Текущее время: 20-Окт 21:11

Часовой пояс: UTC + 5



Вы не можете начинать темы
Вы не можете отвечать на сообщения
Вы не можете редактировать свои сообщения
Вы не можете удалять свои сообщения
Вы не можете голосовать в опросах
Вы не можете прикреплять файлы к сообщениям
Вы не можете скачивать файлы