Шпион / Spy (Пол Фиг) [2015, США, боевик, комедия, криминал, WEB-DLRip] (Dub)[Чистый звук]

Ответить на тему
 

victor0778 ®

Стаж: 6 лет 8 месяцев

Сообщений: 1670

Симпатии: 142

- -Шпион / Spy«Одна из пижонов. Одна из шпионов»-
Год выхода: 2015
Выпущено: США / Feigco Entertainment, Twentieth Century Fox
Жанр: боевик, комедия, криминал
Продолжительность: 02:10:20
Озвучивание: Дублированное [Чистый звук]
Примечание: UNRATED-версия длиннее - отсутствует около 5 минут перевода; около 4-х минут - вставки звука с TS -Режиссер: Пол Фиг-В ролях: Мелисса МакКарти, Джейсон Стэйтем, Джуд Лоу, Роуз Бирн, Миранда Харт, Бобби Каннавале, Морена Баккарин, Питер Серафинович, Эллисон Дженни, Ричард Брэйк-О фильме: Сьюзан Купер всю свою жизнь мечтала стать секретным агентом и даже устроилась работать в ЦРУ. Однако, дальше сотрудника самой низкой ступени ей так и не удалось продвинуться. Понимая, что осуществить свою мечту практически невозможно, она все-таки продолжает надеяться на лучшее и с нетерпением ожидает своего шанса. И вскоре судьба дарит ей такую возможность. Лучший агент проваливает секретное задание, в ходе которого он должен был выяснить местонахождение ядерной бомбы, но, совершенно случайно, застрелил единственного человека, владеющего этой информацией.
Через некоторое время службе разведки становится известно, что Рейна Боянова знает, где находится бомба, но она также знает в лицо всех секретных агентов ЦРУ. Теперь у руководства не остается другого выбора, как воспользоваться услугами Сьюзан Купер, но сможет ли она справиться со столь сложной миссией?..
--Качество: WEB-DLRip
Формат: AVI
Видео кодек: XviD
Аудио кодек: AC3
Видео: 720x304 (2.35:1), 23.976 fps, XviD, 1 466 Kbps
Аудио: AC3, 128 Kbps, 48.0 KHz, 2 ch

МедиаИнфо

General
Complete name                    : Wp10H.2015.D.WEB-DLRip.UNRATED.1400MB.avi
Format                           : AVI
Format/Info                      : Audio Video Interleave
File size                        : 1.46 GiB
Duration                         : 2h 10mn
Overall bit rate                 : 1 603 Kbps
Writing application              : VirtualDubMod 1.5.10.3 | www.virtualdub-fr.org || (build 2550/release)
Writing library                  : VirtualDubMod build 2550/release
Video
ID                               : 0
Format                           : MPEG-4 Visual
Format profile                   : Advanced [email protected]
Format settings, BVOP            : Yes
Format settings, QPel            : No
Format settings, GMC             : No warppoints
Format settings, Matrix          : Default (MPEG)
Codec ID                         : XVID
Codec ID/Hint                    : XviD
Duration                         : 2h 10mn
Bit rate                         : 1 466 Kbps
Width                            : 720 pixels
Height                           : 304 pixels
Display aspect ratio             : 2.35:1
Frame rate                       : 23.976 fps
Color space                      : YUV
Chroma subsampling               : 4:2:0
Bit depth                        : 8 bits
Scan type                        : Progressive
Bits/(Pixel*Frame)               : 0.279
Stream size                      : 1.33 GiB (91%)
Writing library                  : XviD 1.2.1 (UTC 2008-12-04)
Audio
ID                               : 1
Format                           : AC-3
Format/Info                      : Audio Coding 3
Mode extension                   : CM (complete main)
Codec ID                         : 2000
Duration                         : 2h 10mn
Bit rate mode                    : Constant
Bit rate                         : 128 Kbps
Channel(s)                       : 2 channels
Channel positions                : Front: L R
Sampling rate                    : 48.0 KHz
Bit depth                        : 16 bits
Stream size                      : 119 MiB (8%)
Alignment                        : Split accross interleaves
Interleave, duration             : 42 ms (1.00 video frame)
Interleave, preload duration     : 500 m

Скриншоты



Создавать темы 27-Авг-2015 14:27

[Профиль]  [ЛС] 

victor0778 ®

Стаж: 6 лет 8 месяцев

Сообщений: 1670

Симпатии: 142

лучше дождаться лицухи, эти 5 минут недоперевода раздражают весь фильм, весь интерес теряется

Создавать темы 28-Авг-2015 00:28

[Профиль]  [ЛС] 

elmar

Стаж: 6 лет 9 месяцев

Сообщений: 44

Симпатии: 4

Смотрите.

Создавать темы 28-Авг-2015 10:20

[Профиль]  [ЛС] 

victor0778 ®

Стаж: 6 лет 8 месяцев

Сообщений: 1670

Симпатии: 142

https://tas-ix.net/viewtopic.php?t=108661

Создавать темы 06-Сен-2015 00:54

[Профиль]  [ЛС] 
Показать сообщения:    
Ответить на тему

Текущее время: 20-Окт 22:58

Часовой пояс: UTC + 5



Вы не можете начинать темы
Вы не можете отвечать на сообщения
Вы не можете редактировать свои сообщения
Вы не можете удалять свои сообщения
Вы не можете голосовать в опросах
Вы не можете прикреплять файлы к сообщениям
Вы не можете скачивать файлы