Подъем с глубины / Deep Rising (Стивен Соммерс STEPHEN SOMMERS) [1998, США,Канада, Ужас, фантастика, боевик, приключения, HDTVRip 720p] (DVO)

Ответить на тему
 

acktovian2 ®

Стаж: 2 года 2 месяца

Сообщений: 2

Симпатии: 4

Подъем с глубины / Deep Rising
Страна: США,Канада
Жанр: Ужас, фантастика, боевик, приключения
Год выпуска: 1998
Продолжительность: 01:45:52
Перевод: Профессиональный (двухголосый закадровый)
Cубтитры: нет
Режиссер: Стивен Соммерс STEPHEN SOMMERS
В ролях: В главных ролях:
Трит Уильямс
Фамке Янссен
Энтони Хилд
Кевин Дж. О’Коннор
Уэс Стьюди
Деррик О’Коннор
Джейсон Флеминг
Клифф Кёртис
Клифтон Пауэлл
Тревор Годдар
Описание: Банда наемников отправляется на перехват океанского пассажирского лайнера с целью захвата драгоценностей и денег. Вооруженные до зубов, они рассчитывают на успех этой тщательно спланированной операции.
Но боевая уверенность захватчиков сменяется ужасом перед небывалыми чудовищами, устроившими пир на корабле! У этих монстров здесь не было противников! И кровь тысяч людей не смогла утолить их жажду!
Качество видео: HDTVRip 720p
Формат видео: MKV
Видео: MPEG4 Video (H264) 1280x720 23.98fps ~5500 kbs
Аудио: Dolby AC3 48000Hz 6ch 384kbps

MediaInfo

General
Unique ID : 241963564738463981148260533394252171350 (0xB6087CCB5C84CDB0AC9ACEF6C0770856)
Complete name : F:\кино\Ужасы\Подъем с глубины.mkv
Format : Matroska
Format version : Version 1
File size : 4.36 GiB
Duration : 1h 46mn
Overall bit rate : 5 869 Kbps
Encoded date : UTC 2007-06-26 21:45:57
Writing application : mkvmerge v2.0.2 ('You're My Flame') built on Feb 21 2007 23:40:55
Writing library : libebml v0.7.7 + libmatroska v0.8.1
Video
ID : 1
Format : AVC
Format/Info : Advanced Video Codec
Format profile : [email protected]
Format settings, CABAC : Yes
Format settings, ReFrames : 11 frames
Codec ID : V_MPEG4/ISO/AVC
Duration : 1h 46mn
Bit rate : 5 501 Kbps
Width : 1 280 pixels
Height : 720 pixels
Display aspect ratio : 16:9
Frame rate mode : Constant
Frame rate : 23.976 fps
Color space : YUV
Chroma subsampling : 4:2:0
Bit depth : 8 bits
Scan type : Progressive
Bits/(Pixel*Frame) : 0.249
Stream size : 3.98 GiB (91%)
Writing library : x264 core 54 svn-635M
Encoding settings : cabac=1 / ref=8 / deblock=1:0:0 / analyse=0x3:0x133 / me=hex / subme=6 / brdo=1 / mixed_ref=1 / me_range=16 / chroma_me=1 / trellis=1 / 8x8dct=1 / cqm=0 / deadzone=21,11 / chroma_qp_offset=0 / threads=2 / nr=0 / decimate=1 / mbaff=0 / bframes=3 / b_pyramid=1 / b_adapt=1 / b_bias=0 / direct=1 / wpredb=1 / bime=1 / keyint=250 / keyint_min=25 / scenecut=40(pre) / rc=2pass / bitrate=5501 / ratetol=1.0 / rceq='blurCplx^(1-qComp)' / qcomp=0.60 / qpmin=10 / qpmax=51 / qpstep=4 / cplxblur=20.0 / qblur=0.5 / ip_ratio=1.40 / pb_ratio=1.30
Language : English
Default : Yes
Forced : No
Audio
ID : 2
Format : AC-3
Format/Info : Audio Coding 3
Mode extension : CM (complete main)
Format settings, Endianness : Big
Codec ID : A_AC3
Duration : 1h 46mn
Bit rate mode : Constant
Bit rate : 384 Kbps
Channel count : 6 channels
Channel positions : Front: L C R, Side: L R, LFE
Sampling rate : 48.0 KHz
Bit depth : 16 bits
Compression mode : Lossy
Stream size : 292 MiB (7%)
Language : Russian
Default : Yes
Forced : No

Скриншоты




Последний раз редактировалось: acktovian2 (2015-09-02 19:51), всего редактировалось 4 раз(а)

Создавать темы 27-Авг-2015 14:28

[Профиль]  [ЛС] 

victor0778

Стаж: 6 лет 6 месяцев

Сообщений: 1670

Симпатии: 142

acktovian2,
все переделал и скрины нормальные залил

Создавать темы 02-Сен-2015 19:49

[Профиль]  [ЛС] 

acktovian2 ®

Стаж: 2 года 2 месяца

Сообщений: 2

Симпатии: 4

спасибо

Создавать темы 03-Сен-2015 12:31

[Профиль]  [ЛС] 

Mpak

Стаж: 5 лет 1 месяц

Сообщений: 663

Симпатии: 340

Российское кино? О_о

Создавать темы 07-Сен-2015 22:57

[Профиль]  [ЛС] 
Показать сообщения:    
Ответить на тему

Текущее время: 17-Авг 11:10

Часовой пояс: UTC + 5



Вы не можете начинать темы
Вы не можете отвечать на сообщения
Вы не можете редактировать свои сообщения
Вы не можете удалять свои сообщения
Вы не можете голосовать в опросах
Вы не можете прикреплять файлы к сообщениям
Вы не можете скачивать файлы