Округ Мэдисон / Madison County (Эрик Инглэнд) [2011, США, ужасы, триллер, детектив, HDRip] (VO)

Ответить на тему
 

Azamchikbest ®

Стаж: 2 года 4 месяца

Сообщений: 19

Симпатии: 34

Округ Мэдисон / Madison County Страна: США
Жанр: ужасы, триллер, детектив
Год выпуска: 2011
Продолжительность: 01:21:00
Перевод: Любительский одноголосый закадровый
Cубтитры: нет
Режиссер: Эрик Инглэнд
В ролях: Колли Бэйли, Мэтт Мерсер, Эйс Марреро, Джоэнна Сотомура, Натали Шиц, Ник Принсип, Дэйтон Нолл, Эдриэнн Харрелл, Кэти Стеджман, Маршалл Йэтс
Описание: Фильм рассказывает о группе студентов, которые едут в отдаленный городок, под названием Мэдисон. Они едут взять интервью у автора известных книг, в которых он рассказывал об ужасных убийствах, произошедших здесь более 20 лет назад. Прибыв на место, они никак не могут найти автора книг и местные жители утверждают, что никогда его не видели. Они также отрицают, что Дэмиен Юэлл, печально известный убийца, когда-либо существовал, и что убийств никогда не было. Чем больше подростки начинают раскапывать историю города, тем яснее им становится, что городок наполнен жуткими тайнами и убийства действительно имели место быть.
Качество видео: HDTVRip-AVC
Формат видео: AVC
Видео: H264, 720x480, 1 705 Kbps, 25.000 fps
Аудио: AAC, 128 Kbps, 44.1 KHz (2 ch)

MediaInfo

General
Complete name : D:\KINO\06 Madison.County.2011 (1).avi
Format : AVI
Format/Info : Audio Video Interleave
File size : 1 016 MiB
Duration : 1h 21mn
Overall bit rate mode : Variable
Overall bit rate : 1 746 Kbps
Writing application : Lavf55.12.100
Video
ID : 1
Format : AVC
Format/Info : Advanced Video Codec
Format profile : [email protected]
Format settings, CABAC : Yes
Format settings, ReFrames : 2 frames
Codec ID : H264
Duration : 1h 21mn
Bit rate : 1 705 Kbps
Width : 720 pixels
Height : 480 pixels
Display aspect ratio : 3:2
Frame rate mode : Variable
Frame rate : 25.000 fps
Standard : NTSC
Color space : YUV
Chroma subsampling : 4:2:0
Bit depth : 8 bits
Scan type : Progressive
Bits/(Pixel*Frame) : 0.197
Stream size : 992 MiB (98%)
Audio
ID : 0
Format : AAC
Format/Info : Advanced Audio Codec
Format version : Version 2
Format profile : LC
Muxing mode : ADTS
Codec ID : FF
Duration : 1h 21mn
Bit rate mode : Variable
Bit rate : 128 Kbps
Minimum bit rate : 56.3 Kbps
Maximum bit rate : 250 Kbps
Channel(s) : 2 channels
Channel positions : Front: L R
Sampling rate : 44.1 KHz
Compression mode : Lossy
Stream size : 18.6 MiB (2%)
Alignment : Aligned on interleaves
Interleave, duration : 40 ms (1.00 video frame)

Скриншоты





Последний раз редактировалось: Azamchikbest (2015-08-29 18:35), всего редактировалось 4 раз(а)

Создавать темы 27-Авг-2015 20:06

[Профиль]  [ЛС] 

Каротажник

Стаж: 4 года

Сообщений: 195

Симпатии: 211

Azamchikbest, сделайте постер и скриншоты с релиза и залейте сюда http://img.tas-ix.net/

Создавать темы 28-Авг-2015 08:55

[Профиль]  [ЛС] 

victor0778

Стаж: 6 лет 8 месяцев

Сообщений: 1670

Симпатии: 142

Azamchikbest,
Перевод: Любительский одноголосый закадровый
Качество: HDTVRip-AVC
Формат видео: AVC
Аудио: AC3 AAC

Создавать темы 28-Авг-2015 09:56

[Профиль]  [ЛС] 
Показать сообщения:    
Ответить на тему

Текущее время: 22-Окт 20:42

Часовой пояс: UTC + 5



Вы не можете начинать темы
Вы не можете отвечать на сообщения
Вы не можете редактировать свои сообщения
Вы не можете удалять свои сообщения
Вы не можете голосовать в опросах
Вы не можете прикреплять файлы к сообщениям
Вы не можете скачивать файлы