Холодное высокогорье / The Squad (Хайме Осорио Маркес) [2011, Колумбия, Аргентина, Испания, ужасы, триллер, DVDRip-AVC] (VO)

Ответить на тему
 

Azamchikbest ®

Стаж: 2 года 5 месяцев

Сообщений: 19

Симпатии: 34

Холодное высокогорье / The Squad Страна: Колумбия, Аргентина, Испания
Жанр: ужасы, триллер
Год выпуска: 2011
Продолжительность: 01:43:00
Перевод: Одноголосый закадровый
Cубтитры: нет
Режиссер: Хайме Осорио Маркес
В ролях: Хуан Пабло Барраган, Алехандро Агиляр, Маурисио Навас, Хуан Давид Рестрепо, Андрес Кастанеда, Нельсон Камайо, Хулио Сезар Валенсиа, Андрес Торрес, Матео Стевель, Даниэла Катц
Описание: Небольшой отряд из девяти человек спешит выяснить почему прервалась связь с одним из отрядов и куда они вообще пропали. В результате разведывательной операции, в деревне солдатами была найдена прикованная к стене женщина. Дальнейшие события, связанные с приступами паранойи, обрушившейся на героев, постоянные ужасные находки и приступы страха, заставляют усомниться в человеческой природе происхождения найденной ими женщины…
Качество видео: DVDRip-AVC
Формат видео: AVC
Видео: H264, 720x480, 1 721 Kbps, 25.000 fps
Аудио: AAC, 128 Kbps, 44.1 KHz (2 ch)

MediaInfo

General
Complete name : D:\KINO\07 Xolodnoe vysokogorie.2011 (1).avi
Format : AVI
Format/Info : Audio Video Interleave
Format profile : OpenDML
File size : 1.27 GiB
Duration : 1h 43mn
Overall bit rate mode : Variable
Overall bit rate : 1 764 Kbps
Writing application : Lavf55.12.100
Video
ID : 1
Format : AVC
Format/Info : Advanced Video Codec
Format profile : Main@L3.0
Format settings, CABAC : Yes
Format settings, ReFrames : 2 frames
Codec ID : H264
Duration : 1h 43mn
Bit rate : 1 721 Kbps
Width : 720 pixels
Height : 480 pixels
Display aspect ratio : 3:2
Frame rate mode : Variable
Frame rate : 25.000 fps
Standard : NTSC
Color space : YUV
Chroma subsampling : 4:2:0
Bit depth : 8 bits
Scan type : Progressive
Bits/(Pixel*Frame) : 0.199
Stream size : 1.24 GiB (98%)
Audio
ID : 0
Format : AAC
Format/Info : Advanced Audio Codec
Format version : Version 2
Format profile : LC
Muxing mode : ADTS
Codec ID : FF
Duration : 1h 43mn
Bit rate mode : Variable
Bit rate : 128 Kbps
Minimum bit rate : 50.3 Kbps
Maximum bit rate : 237 Kbps
Channel(s) : 2 channels
Channel positions : Front: L R
Sampling rate : 44.1 KHz
Compression mode : Lossy
Stream size : 23.6 MiB (2%)
Alignment : Aligned on interleaves
Interleave, duration : 40 ms (1.00 video frame)

Скриншоты





Последний раз редактировалось: Azamchikbest (2015-08-29 19:38), всего редактировалось 5 раз(а)

Создавать темы 27-Авг-2015 20:38

[Профиль]  [ЛС] 

victor0778

Стаж: 6 лет 9 месяцев

Сообщений: 1670

Симпатии: 142

Формат видео: AVI
Аудио: AC3

Создавать темы 27-Авг-2015 20:45

[Профиль]  [ЛС] 

victor0778

Стаж: 6 лет 9 месяцев

Сообщений: 1670

Симпатии: 142

картинки сюда

Создавать темы 27-Авг-2015 20:46

[Профиль]  [ЛС] 

victor0778

Стаж: 6 лет 9 месяцев

Сообщений: 1670

Симпатии: 142

проблема та же ,что и с остальными Вашими релизами

Создавать темы 28-Авг-2015 11:07

[Профиль]  [ЛС] 

victor0778

Стаж: 6 лет 9 месяцев

Сообщений: 1670

Симпатии: 142

о субтитрах в MediaInfo нет даже намека

Создавать темы 28-Авг-2015 11:08

[Профиль]  [ЛС] 

victor0778

Стаж: 6 лет 9 месяцев

Сообщений: 1670

Симпатии: 142

Azamchikbest, качество исправил и то это качество под большим сомнением, судя по скринам

Создавать темы 29-Авг-2015 19:40

[Профиль]  [ЛС] 

Skuxx

Стаж: 2 года 7 месяцев

Сообщений: 4

Симпатии: 11

Че за ужасное оформление

Создавать темы 29-Авг-2015 20:06

[Профиль]  [ЛС] 
Показать сообщения:    
Ответить на тему

Текущее время: 25-Ноя 01:29

Часовой пояс: UTC + 5



Вы не можете начинать темы
Вы не можете отвечать на сообщения
Вы не можете редактировать свои сообщения
Вы не можете удалять свои сообщения
Вы не можете голосовать в опросах
Вы не можете прикреплять файлы к сообщениям
Вы не можете скачивать файлы