Озеро страха: Анаконда / Lake Placid vs. Anaconda (А.Б. Стоун) [2015, США, ужасы, фантастика, боевик, HDRip] (MVO : [iTunes])

Ответить на тему
 

akmal-19-66 ®

Стаж: 2 года 4 месяца

Сообщений: 23

Симпатии: 120

Озеро страха: Анаконда / Lake Placid vs. Anaconda
-Страна: США
Жанр: ужасы, фантастика, боевик
Год выпуска: 2015
Продолжительность: 01:31:34-Перевод: Профессиональный (многоголосое) [iTunes]
Cубтитры: нет
Режиссер: А.Б. Стоун-В ролях: Корин Немек, Янси Батлер, Стивен Биллингтон, Скай Лоури,Оливер Уолкер, Али Эгил, Анабель Райт, Лаура Дэйл, Джорджина Филиппс, Найджел Барбер-Описание: Гигантский аллигатор хочет сразиться с не менее гигантской Анакондой. Городской шериф должен найти способ уничтожить двух монстров, прежде чем они уничтожат весь город.-Качество видео: WEB-DLRip
Формат видео: AVI
Видео: Xvid 720x400 23.98fps
Аудио: Dolby AC3 48000Hz 6ch 384kbps

MediaInfo


General
Complete name : E:\Torrent skachat\Torrent upload\Озеро страха Анаконда\Ozero.straha.Anakonda.2015.P.WEBDLRip.avi
Format : AVI
Format/Info : Audio Video Interleave
File size : 1.37 GiB
Duration : 1h 31mn
Overall bit rate : 2 138 Kbps
Writing application : VirtualDubMod 1.5.10.3 | www.virtualdub-fr.org || (build 2550/release)
Writing library : VirtualDubMod build 2550/release
Video
ID : 0
Format : MPEG-4 Visual
Format profile : Advanced [email protected]
Format settings, BVOP : Yes
Format settings, QPel : No
Format settings, GMC : No warppoints
Format settings, Matrix : Default (MPEG)
Codec ID : XVID
Codec ID/Hint : XviD
Duration : 1h 31mn
Bit rate : 1 745 Kbps
Width : 720 pixels
Height : 400 pixels
Display aspect ratio : 16:9
Frame rate : 23.976 fps
Color space : YUV
Chroma subsampling : 4:2:0
Bit depth : 8 bits
Scan type : Progressive
Compression mode : Lossy
Bits/(Pixel*Frame) : 0.253
Stream size : 1.12 GiB (82%)
Writing library : XviD 1.2.1 (UTC 2008-12-04)
Audio
ID : 1
Format : AC-3
Format/Info : Audio Coding 3
Mode extension : CM (complete main)
Format settings, Endianness : Big
Codec ID : 2000
Duration : 1h 31mn
Bit rate mode : Constant
Bit rate : 384 Kbps
Channel(s) : 6 channels
Channel positions : Front: L C R, Side: L R, LFE
Sampling rate : 48.0 KHz
Bit depth : 16 bits
Compression mode : Lossy
Stream size : 252 MiB (18%)
Alignment : Split accross interleaves
Interleave, duration : 42 ms (1.00 video frame)
Interleave, preload duration : 500 ms
SCREENSHOTS

Создавать темы 27-Авг-2015 23:04

[Профиль]  [ЛС] 

axeman

Стаж: 4 года 10 месяцев

Сообщений: 380

Симпатии: 50

судя по скринам тв3 ?

Создавать темы 28-Авг-2015 18:14

[Профиль]  [ЛС] 

bek33

Стаж: 5 лет 7 месяцев

Сообщений: 45

Симпатии: 5

Мне одному кажется что, ТВ3 нервно курит в стороночке?!

Создавать темы 29-Авг-2015 19:38

[Профиль]  [ЛС] 

4niko

Стаж: 6 лет 10 месяцев

Сообщений: 78

Симпатии: 11

948805судя по скринам тв3 ?
Может discovery :)

Создавать темы 29-Авг-2015 19:39

[Профиль]  [ЛС] 

alcor

Стаж: 2 года 5 месяцев

Сообщений: 45

Симпатии: 8

судя по скринам животные не очень реалистичные видимо бюджет фильма не очень большой

Создавать темы 29-Авг-2015 20:53

[Профиль]  [ЛС] 

elmar

Стаж: 6 лет 8 месяцев

Сообщений: 44

Симпатии: 4

третий сорт-не брак.

Создавать темы 30-Авг-2015 08:21

[Профиль]  [ЛС] 

axeman

Стаж: 4 года 10 месяцев

Сообщений: 380

Симпатии: 50

хахахах скачали 231 раз за 5 дней

Создавать темы 02-Сен-2015 17:07

[Профиль]  [ЛС] 

aziz2311

Стаж: 3 года 11 месяцев

Сообщений: 57

Симпатии: 23

мусор

Создавать темы 02-Сен-2015 18:27

[Профиль]  [ЛС] 

beck8788

Стаж: 7 лет 5 месяцев

Сообщений: 88

Симпатии: 1

Рейтинг о себе говорить:
 

Создавать темы 03-Сен-2015 10:48

[Профиль]  [ЛС] 
Показать сообщения:    
Ответить на тему

Текущее время: 23-Сен 10:47

Часовой пояс: UTC + 5



Вы не можете начинать темы
Вы не можете отвечать на сообщения
Вы не можете редактировать свои сообщения
Вы не можете удалять свои сообщения
Вы не можете голосовать в опросах
Вы не можете прикреплять файлы к сообщениям
Вы не можете скачивать файлы