Карнавальный Фантазм: ХибиЧика спешл / Carnival Phantasm: HibiChika Special (Киси Сэйдзи) [Special] [1 из 1] [Без хардсаба] [RUS(ext), JAP+SUB] [2013 г., комедия, пародия, BDRip] [720p]

Ответить на тему
 

LikeSmile ®

Стаж: 4 года 5 месяцев

Сообщений: 298

Симпатии: 48

Год выпуска: 2013
Страна: Япония
Жанр: комедия, пародия
Продолжительность: (1 эп.), 26 мин.--Перевод:
  • русские от Korochun (полные/надписи)
Озвучка:
  • двухголосная от (муж./жен.) DemonOFmooN & Lali (AniFilm)
--Режиссер: Киси Сэйдзи
Студия: Lerche--На данном трекере имеется:
Carnival Phantasm
Carnival Phantasm: EX Season
Carnival Phantasm: HibiChika Special--Описание: Это аниме основано на манге Телеши Эри "Take Moon" и в честь 10-летнего юбилея "Take Moon". В аниме будут представлены различные персонажи из "Kara no Kyoukai", "Fate/Stay Nigth" и "Tsukihime".--Дополнительную информацию можете найти на: AniDB || WA || MAL--Качество: BDRip
Энкод: UTW
Тип релиза: без хардсаба
Формат: mkv
Видео: x264 (Hi10p) 1280x720, ~2600 Kbps, 23.976 fps
Аудио JAP: AC3, 48000Hz, 16 bits, ~320 kbps, 2 ch
Аудио RUS: AC3, 48000Hz, 16 bits, ~320 kbps, 2 ch--

Media Info

General
Unique ID                   : 174035527272941247648411985594174128635 (0x82EE05F95CC4B1FCBB57A6079FD3C1FB)
Complete name               : J:\Anime [Скачано с торрентов]\Carnival Phantasm [DVD-BD] [576-720p]\Carnival Phantasm - HibiChika Special [BD] [720p]\[UTW] Carnival Phantasm - HibiChika Special [BDrip 1280x720 x264 AC3].mkv
Format                      : Matroska
Format version              : Version 4 / Version 2
File size                   : 436 MiB
Duration                    : 26mn 33s
Overall bit rate            : 2 293 Kbps
Movie name                  : Carnival Phantasm BD - Special Season
Encoded date                : UTC 2015-08-27 11:10:53
Writing application         : mkvmerge v7.8.0 ('River Man') 64bit built on Mar 27 2015 16:31:37
Writing library             : libebml v1.3.1 + libmatroska v1.4.2
DURATION                    : 00:26:33.664000000
NUMBER_OF_FRAMES            : 49802
NUMBER_OF_BYTES             : 63746560
_STATISTICS_WRITING_APP     : mkvmerge v7.8.0 ('River Man') 64bit built on Mar 27 2015 16:31:37
_STATISTICS_WRITING_DATE_UT : 2015-08-27 11:10:53
_STATISTICS_TAGS            : BPS DURATION NUMBER_OF_FRAMES NUMBER_OF_BYTES
Video
ID                          : 1
Format                      : AVC
Format/Info                 : Advanced Video Codec
Format profile              : High [email protected]
Format settings, CABAC      : Yes
Format settings, ReFrames   : 9 frames
Codec ID                    : V_MPEG4/ISO/AVC
Duration                    : 26mn 33s
Bit rate                    : 1 927 Kbps
Width                       : 1 280 pixels
Height                      : 720 pixels
Display aspect ratio        : 16:9
Frame rate mode             : Constant
Frame rate                  : 23.976 fps
Color space                 : YUV
Chroma subsampling          : 4:2:0
Bit depth                   : 10 bits
Scan type                   : Progressive
Bits/(Pixel*Frame)          : 0.087
Stream size                 : 366 MiB (84%)
Writing library             : x264 core 129 r2245+729M 1a52e03
Encoding settings           : cabac=1 / ref=9 / deblock=1:-1:-1 / analyse=0x3:0x133 / me=umh / subme=10 / psy=1 / fade_compensate=1.15 / psy_rd=1.02:0.10 / mixed_ref=1 / me_range=32 / chroma_me=1 / trellis=2 / 8x8dct=1 / cqm=0 / deadzone=21,11 / fast_pskip=0 / chroma_qp_offset=-3 / threads=18 / lookahead_threads=3 / sliced_threads=0 / nr=0 / decimate=0 / interlaced=0 / bluray_compat=0 / constrained_intra=0 / fgo=0 / bframes=7 / b_pyramid=2 / b_adapt=2 / b_bias=0 / direct=3 / weightb=1 / open_gop=0 / weightp=2 / keyint=240 / keyint_min=24 / scenecut=35 / intra_refresh=0 / rc_lookahead=140 / rc=crf / mbtree=1 / crf=16.0 / qcomp=0.80 / qpmin=0 / qpmax=81 / qpstep=4 / ip_ratio=1.24 / aq=3:0.86
Language                    : Japanese
Default                     : Yes
Forced                      : No
Color range                 : Limited
Color primaries             : BT.709
Transfer characteristics    : BT.709
Matrix coefficients         : BT.709
DURATION                    : 00:26:33.634000000
NUMBER_OF_FRAMES            : 38209
NUMBER_OF_BYTES             : 392712110
_STATISTICS_WRITING_APP     : mkvmerge v7.8.0 ('River Man') 64bit built on Mar 27 2015 16:31:37
_STATISTICS_WRITING_DATE_UT : 2015-08-27 11:10:53
_STATISTICS_TAGS            : BPS DURATION NUMBER_OF_FRAMES NUMBER_OF_BYTES
Audio
ID                          : 2
Format                      : AC-3
Format/Info                 : Audio Coding 3
Mode extension              : CM (complete main)
Format settings, Endianness : Big
Codec ID                    : A_AC3
Duration                    : 26mn 33s
Bit rate mode               : Constant
Bit rate                    : 320 Kbps
Channel(s)                  : 2 channels
Channel positions           : Front: L R
Sampling rate               : 48.0 KHz
Compression mode            : Lossy
Stream size                 : 60.8 MiB (14%)
Title                       : Original
Language                    : Japanese
Default                     : No
Forced                      : No
-

Скриншоты





Создавать темы 28-Авг-2015 23:21

[Профиль]  [ЛС] 
Показать сообщения:    
Ответить на тему

Текущее время: 23-Окт 12:43

Часовой пояс: UTC + 5



Вы не можете начинать темы
Вы не можете отвечать на сообщения
Вы не можете редактировать свои сообщения
Вы не можете удалять свои сообщения
Вы не можете голосовать в опросах
Вы не можете прикреплять файлы к сообщениям
Вы не можете скачивать файлы