Кукла / The Boy (Крэйг Уилльям Макнейлл) [2015, США, Chiller Films, Contento Films, SpectreVision, Ужасы, триллер, драма, WEB-DLRip]

Ответить на тему
 

Behzod5555 ®

Стаж: 2 года 4 месяца

Сообщений: 21

Симпатии: 55

Кукла / The Boy
Страна: США, Chiller Films, Contento Films, SpectreVision
Жанр: Ужасы, триллер, драма
Год выпуска: 2015
Продолжительность: 01:50:31
Перевод: Любительский (одноголосый) [LetEatBee]
Режиссер: Крэйг Уилльям Макнейлл
В ролях: Риз Мишлер, Пфайфер Брау, Райан Шу, Кэссиди Гиффорд, Трэвис Клафф, Прайс Т. Морган, Тео Буркхардт, Дэвид Херрера, Гэннон Дель Фиерро, Маки Берт
Описание: Дэвид Морс, Рэйн Уилсон, Джаред Бриз, Билл Сейдж, Майк Фогель, Зулейха Робинсон, Эйден Лавкамп, Дэвид Валенсиа, Амалия Санта Мария
Краткое описание: Тед Хенли живет со своим отцом в их придорожном мотеле на пустынном участке дороги. Отец зарабатывает себе на крошечное пособие, собирая различный мусор вдоль шоссе. Но когда проблема с наличными дает о себе знать, Тед находит необычное занятие.
Качество видео: WEB-DLRip
Формат видео: AVI
Видео: XviD, 1247 Кбит/с, 720x304
Аудио: AC3, 6 ch, 384 Кбит/с

MediaInfo

General
Format : AVI
Format/Info : Audio Video Interleave
File size : 1.27 GiB
Duration : 1h 50mn
Overall bit rate : 1 641 Kbps
Writing library : VirtualDub build 35491/release
Video
ID : 0
Format : MPEG-4 Visual
Format profile : Advanced [email protected]
Format settings, BVOP : Yes
Format settings, QPel : No
Format settings, GMC : No warppoints
Format settings, Matrix : Default (H.263)
Codec ID : XVID
Codec ID/Hint : XviD
Duration : 1h 50mn
Bit rate : 1 247 Kbps
Width : 720 pixels
Height : 304 pixels
Display aspect ratio : 2.35:1
Frame rate : 23.976 fps
Color space : YUV
Chroma subsampling : 4:2:0
Bit depth : 8 bits
Scan type : Progressive
Compression mode : Lossy
Bits/(Pixel*Frame) : 0.238
Stream size : 986 MiB (76%)
Writing library : XviD 66
Audio
ID : 1
Format : AC-3
Format/Info : Audio Coding 3
Mode extension : CM (complete main)
Format settings, Endianness : Big
Codec ID : 2000
Duration : 1h 50mn
Bit rate mode : Constant
Bit rate : 384 Kbps
Channel(s) : 6 channels
Channel positions : Front: L C R, Side: L R, LFE
Sampling rate : 48.0 KHz
Bit depth : 16 bits
Compression mode : Lossy
Stream size : 304 MiB (23%)
Alignment : Aligned on interleaves
Interleave, duration : 42 ms (1.00 video frame)
Interleave, preload duration : 512 ms

Скриншоты








Последний раз редактировалось: Behzod5555 (2015-08-30 11:31), всего редактировалось 3 раз(а)

Создавать темы 29-Авг-2015 18:19

[Профиль]  [ЛС] 

Каротажник

Стаж: 4 года 2 месяца

Сообщений: 195

Симпатии: 211

Behzod5555, в Медиа инфо
Complete name : D:\Down\KuKLa.2015.L1.WEBDLRip.avi
в качестве видео: DVDRip
определитесь

Создавать темы 29-Авг-2015 18:30

[Профиль]  [ЛС] 

victor0778

Стаж: 6 лет 10 месяцев

Сообщений: 1670

Симпатии: 142

Behzod5555,
Перевод: Любительский (многоголосый одноголосый закадровый) Доп. инфо о переводе [LetEatBee]
Качество видео: DVDRip WEB-DLRip

Создавать темы 29-Авг-2015 19:35

[Профиль]  [ЛС] 
Показать сообщения:    
Ответить на тему

Текущее время: 18-Дек 05:57

Часовой пояс: UTC + 5



Вы не можете начинать темы
Вы не можете отвечать на сообщения
Вы не можете редактировать свои сообщения
Вы не можете удалять свои сообщения
Вы не можете голосовать в опросах
Вы не можете прикреплять файлы к сообщениям
Вы не можете скачивать файлы