Кокон / Pod (Мики Китинг) [2015, США, Ужасы, триллер, детектив, WEB-DLRip] (L1: Хихикающий доктор | Original Eng)

Ответить на тему
 

bbk ®

Стаж: 7 лет

Сообщений: 435

Симпатии: 479

Кокон / Pod
Страна: США
Жанр: Ужасы, триллер, детектив
Год выпуска: 2015
Продолжительность: 01:18:14
Перевод фильма: Enigma
Озвучено: Любительский (одноголосый закадровый) Хихикающий доктор
Cубтитры: нет
Оригинальная аудиодорожка: английский
Режиссер: Мики Китинг
В ролях: Ларри Фесенден, Лорен Эшли Картер, Джон Уэселкауч, Дин Кэйтс, Брайан Морвант, Форрест МакКейн
Описание: Эд получает странное сообщение от своего брата Мартина, страдающего шизофренией после службы в армии и проходящего курс реабилитации в уединенном домике у озера. Захватив с собой непутевую сестру, он отправляется к Мартину, чтоб узнать правду.
 
Качество видео: WEB-DLRip
Формат видео: AVI
Видео: XviD, 1924 Кбит/с, 720x304
Аудио: Русский (AC3, 2 ch, 192 Кбит/с), английский (AC3, 6 ch, 384 Кбит/с)

MediaInfo

General
    Complete name : Pod.2015.xixidok.WEB-DLRip.1400.ExKinoRay.avi
    Format : AVI
    Format/Info : Audio Video Interleave
    File size : 1.37 GiB
    Duration : 1h 18mn
    Overall bit rate : 2 514 Kbps
    Writing application : VirtualDubMod 1.5.10.2 (build 2540/release)
    Writing library : VirtualDubMod build 2540/release
    Copyright : ExKinoRay
  Video #0
    ID : 0
    Format : MPEG-4 Visual
    Format profile : Advanced [email protected]
    Format settings, BVOP : 1
    Format settings, QPel : No
    Format settings, GMC : No warppoints
    Format settings, Matrix : Custom
    Codec ID : XVID
    Codec ID/Hint : XviD
    Duration : 1h 18mn
    Bit rate : 1 827 Kbps
    Width : 720 pixels
    Height : 304 pixels
    Display aspect ratio : 2.35:1
    Frame rate : 23.976 fps
    Color space : YUV
    Chroma subsampling : 4:2:0
    Bit depth : 8 bits
    Scan type : Progressive
    Compression mode : Lossy
    Bits/(Pixel*Frame) : 0.348
    Stream size : 1 023 MiB (73%)
    Writing library : XviD 73
  Audio #1
    ID : 1
    Format : AC-3
    Format/Info : Audio Coding 3
    Mode extension : CM (complete main)
    Format settings, Endianness : Big
    Codec ID : 2000
    Duration : 1h 18mn
    Bit rate mode : Constant
    Bit rate : 192 Kbps
    Channel(s) : 2 channels
    Channel positions : Front: L R
    Sampling rate : 44.1 KHz
    Bit depth : 16 bits
    Compression mode : Lossy
    Stream size : 107 MiB (8%)
    Alignment : Split accross interleaves
    Title : xixidok
  Audio #2
    ID : 2
    Format : AC-3
    Format/Info : Audio Coding 3
    Mode extension : CM (complete main)
    Format settings, Endianness : Big
    Codec ID : 2000
    Duration : 1h 18mn
    Bit rate mode : Constant
    Bit rate : 384 Kbps
    Channel(s) : 6 channels
    Channel positions : Front: L C R, Side: L R, LFE
    Sampling rate : 48.0 KHz
    Bit depth : 16 bits
    Compression mode : Lossy
    Stream size : 215 MiB (15%)
    Alignment : Split accross interleaves

Скриншоты

Создавать темы 30-Авг-2015 23:11

[Профиль]  [ЛС] 

elmar

Стаж: 6 лет 10 месяцев

Сообщений: 44

Симпатии: 4

слабо.

Создавать темы 31-Авг-2015 19:09

[Профиль]  [ЛС] 
Показать сообщения:    
Ответить на тему

Текущее время: 18-Ноя 17:18

Часовой пояс: UTC + 5



Вы не можете начинать темы
Вы не можете отвечать на сообщения
Вы не можете редактировать свои сообщения
Вы не можете удалять свои сообщения
Вы не можете голосовать в опросах
Вы не можете прикреплять файлы к сообщениям
Вы не можете скачивать файлы