Загнанные лошади / Broken Horses (Видху Винод Чопра) [2015, США, триллер, драма, криминал, детектив, WEB-DLRip] [ iTunes]

Ответить на тему
 

mp1988 ®

Стаж: 6 лет 9 месяцев

Сообщений: 607

Симпатии: 971

Загнанные лошади / Broken Horses-- --Страна: США
Жанр: триллер, драма, криминал, детектив
Год выпуска: 2015
Продолжительность: 01:40:37--Перевод: Профессиональный (многоголосый закадровый) [ iTunes]
Cубтитры: нет
Режиссер: Видху Винод Чопра--В ролях: Антон Ельчин, Крис Маркетт, Винсент Д Онофрио, Мария Вальверде, Томас Джейн, Шон Патрик Флэнери, Фрэнк М. Эхерн, Сэди Александру. Чэд Грибель-Описание: Братские узы, лояльные законы и тщетное насилие на фоне войны банд на американо-мексиканской границе..-- ---Качество видео: WEB-DLRip
Формат видео: AVI
Видео кодек: XVID
Аудио кодек: AC-3
Видео: XVID, 1 681 Kbps, 720х304
Аудио: AC-3, 384 Kbps, 6 ch

MediaInfo

General
Complete name : F:\кино\3agHaHHYe.L0shad1.2015.P.WEB-DLRip.1.46Gb.avi
Format : AVI
Format/Info : Audio Video Interleave
File size : 1.46 GiB
Duration : 1h 40mn
Overall bit rate : 2 074 Kbps
Writing application : VirtualDubMod 1.5.10.3 | www.virtualdub-fr.org || (build 2550/release)
Writing library : VirtualDubMod build 2550/release
Video
ID : 0
Format : MPEG-4 Visual
Format profile : Advanced [email protected]
Format settings, BVOP : 2
Format settings, QPel : No
Format settings, GMC : No warppoints
Format settings, Matrix : Default (MPEG)
Codec ID : XVID
Codec ID/Hint : XviD
Duration : 1h 40mn
Bit rate : 1 681 Kbps
Width : 720 pixels
Height : 304 pixels
Display aspect ratio : 2.35:1
Frame rate : 23.976 fps
Color space : YUV
Chroma subsampling : 4:2:0
Bit depth : 8 bits
Scan type : Progressive
Compression mode : Lossy
Bits/(Pixel*Frame) : 0.320
Stream size : 1.18 GiB (81%)
Writing library : XviD 1.2.1 (UTC 2008-12-04)
Audio
ID : 1
Format : AC-3
Format/Info : Audio Coding 3
Mode extension : CM (complete main)
Format settings, Endianness : Big
Codec ID : 2000
Duration : 1h 40mn
Bit rate mode : Constant
Bit rate : 384 Kbps
Channel(s) : 6 channels
Channel positions : Front: L C R, Side: L R, LFE
Sampling rate : 48.0 KHz
Bit depth : 16 bits
Compression mode : Lossy
Stream size : 276 MiB (19%)
Alignment : Split accross interleaves
Interleave, duration : 42 ms (1.00 video frame)
Interleave, preload duratio : 500 ms

Скриншоты





Последний раз редактировалось: mp1988 (2015-09-03 20:01), всего редактировалось 1 раз

Создавать темы 31-Авг-2015 18:25

[Профиль]  [ЛС] 

zhozef

Стаж: 5 лет 10 месяцев

Сообщений: 35

Симпатии: 6

Рейтинг imdb: 5,9/10

Создавать темы 03-Сен-2015 11:23

[Профиль]  [ЛС] 

victor0778

Стаж: 6 лет 9 месяцев

Сообщений: 1670

Симпатии: 142

949430Рейтинг imdb: 5,9/10
Если указываете рейтинги то будьте любезны указывать количество людей отдавших свой голос за ту или иную картину, а то если проголосовавших 300 человек это одно, а когда их 300000 человек это совсем другое
 

Создавать темы 03-Сен-2015 12:10

[Профиль]  [ЛС] 

asusus

Стаж: 5 лет 1 месяц

Сообщений: 15

Симпатии: 1

как фильм ? отпишитесь

Создавать темы 04-Сен-2015 07:27

[Профиль]  [ЛС] 
Показать сообщения:    
Ответить на тему

Текущее время: 18-Ноя 21:03

Часовой пояс: UTC + 5



Вы не можете начинать темы
Вы не можете отвечать на сообщения
Вы не можете редактировать свои сообщения
Вы не можете удалять свои сообщения
Вы не можете голосовать в опросах
Вы не можете прикреплять файлы к сообщениям
Вы не можете скачивать файлы