Спаситель / Redeemer (Эрнесто Диас Эспиноса) [2014, Чили, США, боевик, криминал, HDRip-AVC] (VO) (Sub Eng)

Ответить на тему
 

Davron1402 ®

Стаж: 3 года 8 месяцев

Сообщений: 136

Симпатии: 122

Спаситель / Redeemer- Страна: Чили, США
Жанр: боевик, криминал
Год выпуска: 2014
Продолжительность: 01:29:57
Перевод: Любительский одноголосый (Хихикающий доктор)
Cубтитры: английские
Режиссер: Эрнесто Диас Эспиноса
В ролях: Ноа Сеган, Марко Сарор, Лорето Аварена, Маурисио Диокарес, Борис Смирнов, Отилио Кастро
Описание: Бывший наёмный убийца Никки Пардо заключил сделку с Богом. Теперь каждый его день будет начинаться с того, что он держит пистолет у своего виска и спускает курок. За эти дни Пардо ни разу не умер, и он расценивает это как знамение того, что ему предначертано продолжать охоту за людьми, на которых он раньше работал.-Качество видео: HDRip-AVC
Формат видео: mkv
Видео: MPEG-4 AVC, 1024 x 576 (16:9), 1988 Кбит/с
Аудио: Русский, испанский (AC3, 6 ch, 448 Кбит/с)-

MediaInfo

Имя файла: Redeemer.2014.xixidok.HDRip.AVC.ExKinoRay.mkv
Формат файла: .mkv (Matroska)
Размер файла: 1.81 GB
Длительность: 1h 29mn
Навигация по главам: Есть
Bitrate (все потоки): 2 885 Kbps
Файл создан...: UTC 2015-08-16 16:54:13
Название: Enigma
Тип потока: Видео
Длительность: 01:29:57
Кодек: AVC
Кодек/Профиль: [email protected]
Кодек/ID: V_MPEG4/ISO/AVC
Кодек/CABAC: Yes
Кодек/ReFrames: 10 frames
Размеры изображения: 1024 x 576 (16:9)
Частота кадров: 23.976 fps
Размер потока: 1.21 GiB (67%)
Битрейт: 1 988 Kbps
Библиотека кодирования: x264 core 133 r2334 a3ac64b
Цветовое пространство: YUV
Тип развёртки: Progressive
Глубина: 8 bits
Тип потока: Звук #1
Язык: Russian
Название: xixidok
Длительность: 01:29:57.184
Кодек: AC-3
Кодек/ID: A_AC3
Частота дискретизации: 48.0 KHz
Каналов: 6 channels
Битрейт: 448 Kbps
Битрейт/тип: Constant
Размер потока: 288 MiB (16%)
Глубина: 16 bits
Метод сжатия: Lossy
Тип потока: Звук #2
Язык: Spanish
Длительность: 01:29:57.184
Кодек: AC-3
Кодек/ID: A_AC3
Частота дискретизации: 48.0 KHz
Каналов: 6 channels
Битрейт: 448 Kbps
Битрейт/тип: Constant
Размер потока: 288 MiB (16%)
Глубина: 16 bits
Метод сжатия: Lossy
Тип потока: Субтитры #1
Язык: English
Формат: UTF-8
Формат/подробно: UTF-8 Plain Text
Название: on spanish only
Тип потока: Субтитры #2
Язык: English
Формат: UTF-8
Формат/подробно: UTF-8 Plain Text
Название: SHD

Скриншоты





Последний раз редактировалось: Davron1402 (2015-09-02 19:30), всего редактировалось 1 раз

Создавать темы 02-Сен-2015 15:29

[Профиль]  [ЛС] 

aziz2311

Стаж: 3 года 11 месяцев

Сообщений: 57

Симпатии: 23

как фильм

Создавать темы 02-Сен-2015 18:33

[Профиль]  [ЛС] 

Davron1402 ®

Стаж: 3 года 8 месяцев

Сообщений: 136

Симпатии: 122

как фильм
Постера посмотри

Создавать темы 02-Сен-2015 19:20

[Профиль]  [ЛС] 

victor0778

Стаж: 6 лет 7 месяцев

Сообщений: 1670

Симпатии: 142

Davron1402, подправил немного

Создавать темы 02-Сен-2015 19:31

[Профиль]  [ЛС] 

Davron1402 ®

Стаж: 3 года 8 месяцев

Сообщений: 136

Симпатии: 122

Davron1402, подправил немного
Спасибо

Создавать темы 02-Сен-2015 20:23

[Профиль]  [ЛС] 
Показать сообщения:    
Ответить на тему

Текущее время: 27-Сен 01:46

Часовой пояс: UTC + 5



Вы не можете начинать темы
Вы не можете отвечать на сообщения
Вы не можете редактировать свои сообщения
Вы не можете удалять свои сообщения
Вы не можете голосовать в опросах
Вы не можете прикреплять файлы к сообщениям
Вы не можете скачивать файлы