Несокрушимая Механическая Кукла / Machine-Doll wa Kizutsukanai / Unbreakable Machine-Doll (Ёсимото Киндзи) [TV+Special] [без хардсаба] [12+2 из 12+6] [JAP+SUB] & [12+0 из 12+6] [RUS(ext)] [2013 г., приключения, фэнтези, романтика, этти, BDRip] [720p]

Ответить на тему
 

Razrushitel ®

Стаж: 4 года 4 месяца

Сообщений: 148

Симпатии: 42

- Страна: Япония
Год выпуска: 2013
Выпуск: c 07.10.2013 по 23.12.2013
Жанр: приключения, фэнтези, романтика, этти
Тип: TV (12 эп.), 24 мин.-Перевод:
  • русские субтитры от Firegorn-Team (полные/вспомогательные) [TV 1-12 + SP 1]
    переводчик: Naru, редактура: Lagno, оформление: Redgar-firegorn
  • русские субтитры от AniPanic [SP 2]
    переводчик: Itseksee
Озвучивание:
  • двухголосая (муж./жен.) от JAM & Holly (AniDub)
-Режиссер: Ёсимото Киндзи
Автор оригинала: Кайто Рэйдзи
Студия: Lerche-Описание: В мире победившего стимпанка чудеса науки никого не удивляют. На пороге альтернативного Нового времени алхимия срослась с механикой и дала рождение «автоматам», которых мы бы назвали фамильярами, роботами или киборгами. Примитивные автоматы – лишь куклы, команды которым дает оператор, а самые продвинутые – настоящие искусственные личности, обладающие разумом и собственным волшебством. Для создания таких существ, мечты правителей и военных, нужно идти по грани законов природы, сплавляя магией бездушные элементы и живую плоть, но чего не сделаешь ради силы и власти!
17-летний Райсин Акабанэ из древнего рода оммёдзи в одну ночь потерял семью. Парня спасла Сёко Карюсай, гениальный мастер и таинственная женщина. Акабанэ дал слово служить ей, а взамен получил возможность рассчитаться за близких. Сначала пришлось тренироваться с новой напарницей Яйей – одним из лучших творений Сёко, андроидом-бойцом, неотличимым от человека. А потом пришла настоящая работа – внедриться в английскую Королевскую академию, знаменитую школу магов, где скрывается убийца семьи Райсина. Во время местного турнира, Вальпургиевой Ночи, встреча с кровником неизбежна – если, конечно, горячий восточный парень обуздает стремительно формирующийся гарем!© Hollow, World Art--Информационные ссылки: AniDB || World Art || MyAnimeList--MyAnimeList.NET: 7.48 (scored by 49966 users)
Ranked: #1574--Качество: BDRip
Encode: Winter - RG Pantheon || Re-encoded: Razrushitel
Тип видео: без хардсаба || Формат: mkv
Видео: x264 (Hi10p), 1280x720, ~900 Kbps, 23.976 fps
Аудио JAP: AC3, 48000Hz, ~128 Kbps, 2ch (в составе контейнера)
Аудио RUS: AC3, 48000Hz, ~128 Kbps, 2ch (внешними файлами)
-

Список эпизодов

01. Facing "Cannibal Candy" I
02. Facing "Cannibal Candy" II
03. Facing "Cannibal Candy" III
04. Facing "Cannibal Candy" IV
05. Facing "Sword Angel" I
06. Facing "Sword Angel" II
07. Facing "Sword Angel" III
08. Facing "Sword Angel" IV
09. Facing "Elf Speeder" I
10. Facing "Elf Speeder" II
11. Facing "Elf Speeder" III
12. Facing "Elf Speeder" IV

Скриншоты

Подробные тех. данные

Общее
Уникальный идентификатор                 : 228434400481369532339110735798980932510 (0xABDADD7F285AE3C482E88CE5A119739E)
Полное имя                               : E:\*****\Machine-Doll wa Kizutsukanai [BD] [720p]\Machine-Doll wa Kizutsukanai - 01 [Hi 10] [BD 720p].mkv
Формат                                   : Matroska
Версия формата                           : Version 2
Размер файла                             : 196 Мбайт
Продолжительность                        : 23 м. 41 с.
Общий поток                              : 1156 Кбит/сек
Дата кодирования                         : UTC 2015-07-04 11:22:01
Программа кодирования                    : mkvmerge v7.7.0 ('Six Voices') 32bit built on Feb 28 2015 23:23:00
Библиотека кодирования                   : libebml v1.3.1 + libmatroska v1.4.2
_STATISTICS_WRITING_APP                  : mkvmerge v7.7.0 ('Six Voices') 32bit built on Feb 28 2015 23:23:00
_STATISTICS_WRITING_DATE_UTC             : 2015-07-04 11:22:01
_STATISTICS_TAGS                         : BPS DURATION NUMBER_OF_FRAMES NUMBER_OF_BYTES
DURATION                                 : 00:23:41.632000000
NUMBER_OF_FRAMES                         : 44426
NUMBER_OF_BYTES                          : 22746112
Видео
Идентификатор                            : 1
Формат                                   : AVC
Формат/Информация                        : Advanced Video Codec
Профиль формата                          : High [email protected]
Параметр CABAC формата                   : Да
Параметр ReFrames формата                : 4 кадра
Идентификатор кодека                     : V_MPEG4/ISO/AVC
Продолжительность                        : 23 м. 41 с.
Битрейт                                  : 1005 Кбит/сек
Ширина                                   : 1280 пикселей
Высота                                   : 720 пикселей
Соотношение сторон                       : 16:9
Режим частоты кадров                     : Постоянный
Частота кадров                           : 23,976 кадра/сек
Цветовое пространство                    : YUV
Субдискретизация насыщенности            : 4:2:0
Битовая глубина                          : 10 бит
Тип развёртки                            : Прогрессивная
Бит/(Пиксели*Кадры)                      : 0.045
Размер потока                            : 170 Мбайт (87%)
Библиотека кодирования                   : x264 core 146 r2538 121396c
Настройки программы                      : cabac=1 / ref=3 / deblock=1:0:0 / analyse=0x3:0x113 / me=hex / subme=7 / psy=1 / psy_rd=1.00:0.00 / mixed_ref=1 / me_range=16 / chroma_me=1 / trellis=1 / 8x8dct=1 / cqm=0 / deadzone=21,11 / fast_pskip=1 / chroma_qp_offset=-2 / threads=3 / lookahead_threads=1 / sliced_threads=0 / nr=0 / decimate=1 / interlaced=0 / bluray_compat=0 / constrained_intra=0 / bframes=3 / b_pyramid=2 / b_adapt=1 / b_bias=0 / direct=1 / weightb=1 / open_gop=0 / weightp=2 / keyint=240 / keyint_min=23 / scenecut=40 / intra_refresh=0 / rc_lookahead=40 / rc=crf / mbtree=1 / crf=23.0 / qcomp=0.60 / qpmin=0 / qpmax=81 / qpstep=4 / ip_ratio=1.40 / aq=1:1.00
Default                                  : Да
Forced                                   : Нет
Аудио
Идентификатор                            : 2
Формат                                   : AC-3
Формат/Информация                        : Audio Coding 3
Расширение режима                        : CM (complete main)
Параметр Endianness формата              : Big
Идентификатор кодека                     : A_AC3
Продолжительность                        : 23 м. 41 с.
Вид битрейта                             : Постоянный
Битрейт                                  : 128 Кбит/сек
Каналы                                   : 2 канала
Расположение каналов                     : Front: L R
Частота                                  : 48,0 КГц
Битовая глубина                          : 16 бит
Метод сжатия                             : С потерями
Размер потока                            : 21,7 Мбайт (11%)
Язык                                     : Japanese
Default                                  : Да
Forced                                   : Нет


Последний раз редактировалось: Razrushitel (2015-09-19 06:26), всего редактировалось 1 раз

Создавать темы 02-Сен-2015 22:42

[Профиль]  [ЛС] 

Aler Gebluar

Стаж: 3 года 11 месяцев

Сообщений: 26

Симпатии: 11

ув. РЕЛИЗЁР
Прислушайтесь к словам и замените по быстрей постер оно черезмерно вульгарен
дабы избежать закрытие релиза,
и конечно за труды и за данный материалы от меня скромный плюс
надеюсь что этот релиз не первый, и не последный.


Последний раз редактировалось: Aler Gebluar (2015-09-04 08:12), всего редактировалось 1 раз

Создавать темы 03-Сен-2015 19:21

[Профиль]  [ЛС] 

Razrushitel ®

Стаж: 4 года 4 месяца

Сообщений: 148

Симпатии: 42

^_^

Aler Gebluar, С другого трекера подправленную цитату вставлять не надо -_- и тут уже проверено (т.е. постер одобрен) так что в спойлер свой коммент вставьте (а лучше удалите)


Последний раз редактировалось: Razrushitel (2015-09-04 12:04), всего редактировалось 2 раз(а)

Создавать темы 03-Сен-2015 21:18

[Профиль]  [ЛС] 

SNIL

Стаж: 5 лет 9 месяцев

Сообщений: 2624

Симпатии: 341

Тема с постерами решена! Гугл их не видит)

Создавать темы 04-Сен-2015 06:30

[Профиль]  [ЛС] 

Aler Gebluar

Стаж: 3 года 11 месяцев

Сообщений: 26

Симпатии: 11

Рустам до раздай в соседним трекере пожалуйста

Создавать темы 04-Сен-2015 12:13

[Профиль]  [ЛС] 
Показать сообщения:    
Ответить на тему

Текущее время: 24-Окт 11:00

Часовой пояс: UTC + 5



Вы не можете начинать темы
Вы не можете отвечать на сообщения
Вы не можете редактировать свои сообщения
Вы не можете удалять свои сообщения
Вы не можете голосовать в опросах
Вы не можете прикреплять файлы к сообщениям
Вы не можете скачивать файлы