КВН-2015. Премьер-лига.(07). Вторая 1/2 финала [2015 г., Юмор, HDTVRip, KVNforAll]

Ответить на тему
 

refantom ®

Стаж: 5 лет 6 месяцев

Сообщений: 195

Симпатии: 86

Название: КВН-2015. Премьер-лига.(07). Вторая 1/2 финала
Год выпуска: 2015
Страна: Россия
Жанр: Тв-шоу, юмор
Продолжительность: 01:14:14
Перевод: Не требуется
Дата игры: 18.06.2015
Дата эфира: 29.08.2015
Описание:
Сегодня у второй пятёрки полуфиналистов последний шанс выдать на-гора из своих закромов припасённый убойный материал с целью прохождения в финал Премьер-лиги 2015 года. Состав этого полуфинала явно сильнее первого, и в течение игры команды, несмотря на соперничество, беспроблемно помогали друг другу. По-видимому, сказалось отсутствие разминки, которая изначально планировалась в составе игры, однако была убрана после неудачного опыта проведения этого конкурса в первом полуфинале.
Команды: Сборная ВШЭ (Москва), Город развлечений (Москва), Всё серьёзно (Кемерово), Хара Морин (Улан-Удэ), Доброжелательный Роман (Санкт-Петербург)
Подробности
Тема сезона: Удовольствия ради
Тема игры: Шаг вперёд
Жюри: Айдар Гараев, Герман Иванов, Ольга Картункова, Филипп Воронин
Приветствие
Сборная ВШЭ
- девушка на занятиях по танцам после пропуска одного занятия
- парень решил сделать предложение девушке в ночном клубе
- на курортной дискотеке
- девушка сюсюкает с тараканом
- Фабио Капелло вызвали на разговор в РФС
- реклама на региональном телевидении
- мальчик перестал всё понимать с самого начала на уроке физики
Город развлечений
- взрослые подыгрывают детям в детских играх
- в полицейском участке
- девушка привела родителей знакомиться с парнем, который работает в тату-салоне
Всё серьёзно
- самая несерьёзная команда
- дегустатор энергетических напитков сразу после пробы
- в ночном клубе
- ограбление магазина интимных товаров
- любимчик преподавателя на контрольной
- "стрелка" где-то за городом
- ролевые игры молодой пары
- зона досмотра счастливого путешествия по семейной жизни
- ожидаемая форма дорогих видеоотчётов о свадьбе
Хара Морин
- компрометирующие фото в квартире Айдара Гараева
- каратист в команде
- самураи на выпускном
- ЕГЭ по физкультуре
- семейный раздор ради команды
Доброжелательный Роман
- петербуржский интеллигент занимает 300 рублей
- ответы по ЕГЭ
- писатель в отделении полиции
- автор бестселлера "Я не подкаблучник" на автограф-сессии
- ночной эфир петербуржского регионального телевидения
- сдача квартиры в центре Петербурга
Финальный номер
Хара Морин
- анонс финального выступления команды
Доброжелательный Роман
- доказательство, что каждый мужчина - гусар (из кинофильма "Гусарская баллада" - "Песня гусар (Давным-давно)")
Город развлечений
- музыкальный апокалипсис
Всё серьёзно
- встреча дома проигравшего КВНщика (Елена Камбурова - "Песня о разлуке")
Сборная ВШЭ
- мюзикл "Чудовище и чудовище"
Техданные:
Качество: HDTVRip
Файл: KVN.2015.Premier.(07).2.1-2.www.kvnforall.info.avi
Размер: 1023.99 Мб ( 1 073 729 842 байт )
Продолжительность: 01:14:14.879 (111372 кадров)
Видео: 720x400 (1.80:1), 25 fps, XviD MPEG-4 ~1726 kbps avg, 0.24 bit/pixel
Аудио: 48 kHz, MPEG Layer 3, 2 ch, ~192.00 kbps avg

Медиаинфо

General
Complete name : KVN.2015.Premier.(07).2.1-2.KVNforAll.avi
Format : AVI
Format/Info : Audio Video Interleave
File size : 1 024 MiB
Duration : 1h 14mn
Overall bit rate : 1 928 Kbps
Writing library : VirtualDub build 30080/release
Video #0
ID : 0
Format : MPEG-4 Visual
Format profile : Advanced [email protected]
Format settings, BVOP : 2
Format settings, QPel : No
Format settings, GMC : No warppoints
Format settings, Matrix : Default (MPEG)
Muxing mode : Packed bitstream
Codec ID : XVID
Codec ID/Hint : XviD
Duration : 1h 14mn
Bit rate : 1 727 Kbps
Width : 720 pixels
Height : 400 pixels
Display aspect ratio : 16:9
Frame rate : 25.000 fps
Color space : YUV
Chroma subsampling : 4:2:0
Bit depth : 8 bits
Scan type : Progressive
Compression mode : Lossy
Bits/(Pixel*Frame) : 0.240
Stream size : 917 MiB (90%)
Writing library : XviD 73
Audio #1
ID : 1
Format : MPEG Audio
Format version : Version 1
Format profile : Layer 3
Codec ID : 55
Codec ID/Hint : MP3
Duration : 1h 14mn
Bit rate mode : Constant
Bit rate : 192 Kbps
Channel count : 2 channels
Sampling rate : 48.0 KHz
Compression mode : Lossy
Stream size : 102 MiB (10%)
Alignment : Split accross interleaves
Interleave, duration : 40 ms (1.00 video frame)
Interleave, preload duration : 500 ms

Скриншоты


_________________
Подпись отключена за нарушение правил форума


Последний раз редактировалось: refantom (2015-09-03 19:12), всего редактировалось 1 раз

Создавать темы 03-Сен-2015 03:18

[Профиль]  [ЛС] 

victor0778

Стаж: 6 лет 6 месяцев

Сообщений: 1670

Симпатии: 142

refantom, медиаинфо выложите пожалуйста, а то размер при таком качестве сомнителен

Создавать темы 03-Сен-2015 18:07

[Профиль]  [ЛС] 
Показать сообщения:    
Ответить на тему

Текущее время: 17-Авг 14:55

Часовой пояс: UTC + 5



Вы не можете начинать темы
Вы не можете отвечать на сообщения
Вы не можете редактировать свои сообщения
Вы не можете удалять свои сообщения
Вы не можете голосовать в опросах
Вы не можете прикреплять файлы к сообщениям
Вы не можете скачивать файлы