Скандинавский форсаж / Børning (Халлвард Браэин) [2014, Норвегия, боевик, комедия, HDRip] (Dub)

Ответить на тему
 

Davron1402 ®

Стаж: 3 года 10 месяцев

Сообщений: 136

Симпатии: 122

Скандинавский форсаж / Børning- Страна: Норвегия
Жанр: боевик, комедия
Год выпуска: 2014
Продолжительность: 01:32:52
Перевод: Профессиональный (дублированный) [iTunes]
Cубтитры: нет
Режиссер: Халлвард Браэин
В ролях: Ларс Аренц-Хансен, Андерс Баасмо Кристиансен, Камилла Фрэй, Марсело Галван, Тронд Хальбо, Отто Есперсен, Оскар Шандвен Лундеволд, Хенрик Местад, Свен Нордин, Стейнар Саген-Описание: У Роя одна, но пламенная страсть — гонки. И как раз, когда он готовится к важному соревнованию, на горизонте появляется 14-летняя дочь, требующая к себе повышенного внимания. Увлекшись выяснением отношений с ребенком, Рой проигрывает заезд, и теперь у него только один шанс восстановить свою репутацию — участие в гонке «Северный Мыс». Кто первым доберется из Осло до самой северной точки Норвегии, тот и будет признан величайшим гонщиком всех времен и народов…-Качество видео: HDRip
Формат видео: AVI
Видео: MPEG-4 Visual, 720 x 304 (2.35:1), 24.000 fps, 1 713 Kbps
Аудио: AC3, 48.0 KHz, 384 kb/s (6 ch)-

MediaInfo

Имя файла: Скандинавский форсаж.2014.D.HDRip.avi
Формат файла: .avi (AVI)
Размер файла: 1.37 GB
Длительность: 1h 32mn
Навигация по главам: Нет
Bitrate (все потоки): 2 107 Kbps
Название: Скандинавский форсаж.2014.D.HDRip
Тип потока: Видео
Длительность: 01:32:52
Кодек: MPEG-4 Visual
Кодек/Профиль: Advanced [email protected]
Кодек/ID: XVID
Размеры изображения: 720 x 304 (2.35:1)
Частота кадров: 24.000 fps
Размер потока: 1.11 GiB (81%)
Битрейт: 1 713 Kbps
Библиотека кодирования: XviD 1.2.1 (UTC 2008-12-04)
Цветовое пространство: YUV
Тип развёртки: Progressive
Глубина: 8 bits
Тип потока: Звук #1
Длительность: 01:32:52.084
Кодек: AC-3
Кодек/ID: 2000
Частота дискретизации: 48.0 KHz
Каналов: 6 channels
Битрейт: 384 Kbps
Битрейт/тип: Constant
Размер потока: 255 MiB (18%)
Глубина: 16 bits
Метод сжатия: Lossy

Скриншоты






Последний раз редактировалось: Davron1402 (2015-09-03 12:12), всего редактировалось 1 раз

Создавать темы 03-Сен-2015 10:31

[Профиль]  [ЛС] 

Bek_uz

Стаж: 6 лет 6 месяцев

Сообщений: 60

Симпатии: 1

Скорости плиз

Создавать темы 01-Июл-2016 23:16

[Профиль]  [ЛС] 
Показать сообщения:    
Ответить на тему

Текущее время: 18-Ноя 17:16

Часовой пояс: UTC + 5



Вы не можете начинать темы
Вы не можете отвечать на сообщения
Вы не можете редактировать свои сообщения
Вы не можете удалять свои сообщения
Вы не можете голосовать в опросах
Вы не можете прикреплять файлы к сообщениям
Вы не можете скачивать файлы