Беглец / The Runner (Остин Старк) [2015, США, Драма, Боевик, HDRip] (MVO)

Ответить на тему
 

Davron1402 ®

Стаж: 3 года 7 месяцев

Сообщений: 136

Симпатии: 122

Беглец / The Runner- Страна: США
Жанр: Драма, Боевик
Год выпуска: 2015
Продолжительность: 01:30:08
Перевод: Профессиональный (многоголосый закадровый)
Cубтитры: нет
Режиссер: Остин Старк-В ролях: Николас Кейдж, Сара Полсон, Конни Нильсен, Уенделл Пирс, Брайан Бэтт, Питер Фонда, Фредрик Лене,
Дэна Гурье, Керри Кехилл, Кристофер Берри
-Описание: После разлива нефти в результате аварии на нефтяной платформе BP в 2010 году амбициозный политик-идеалист пытается наладить свою жизнь и карьеру, разрушенную секс-скандалом.
-Качество видео: HDRip
Формат видео: AVI
Видео: MPEG-4 Visual, 720 x 304 (2.35:1), 23.976 fps, 1 720 Kbps
Аудио: AC-3, 48.0 KHz, 6 channels, 448 Kbps-

MediaInfo

Имя файла: Беглец.2015.P.HDRip.avi
Формат файла: .avi (AVI)
Размер файла: 1.37 GB
Длительность: 1h 30mn
Навигация по главам: Нет
Bitrate (все потоки): 2 176 Kbps
Название: Беглец.2015.P.HDRip
Тип потока: Видео
Длительность: 01:30:08
Кодек: MPEG-4 Visual
Кодек/Профиль: Advanced [email protected]
Кодек/ID: XVID
Размеры изображения: 720 x 304 (2.35:1)
Частота кадров: 23.976 fps
Размер потока: 1.08 GiB (79%)
Битрейт: 1 720 Kbps
Библиотека кодирования: XviD 66
Цветовое пространство: YUV
Тип развёртки: Progressive
Глубина: 8 bits
Тип потока: Звук #1
Длительность: 01:29:55.360
Кодек: AC-3
Кодек/ID: 2000
Частота дискретизации: 48.0 KHz
Каналов: 6 channels
Битрейт: 448 Kbps
Битрейт/тип: Constant
Размер потока: 288 MiB (21%)
Глубина: 16 bits
Метод сжатия: Lossy

Скриншоты



Создавать темы 03-Сен-2015 10:52

[Профиль]  [ЛС] 

axeman

Стаж: 4 года 9 месяцев

Сообщений: 380

Симпатии: 50

скачан 181раз даже коммент не оставили

Создавать темы 05-Сен-2015 20:44

[Профиль]  [ЛС] 

Rolex

Стаж: 5 лет 6 месяцев

Сообщений: 59

Симпатии: 11

949659скачан 181раз даже коммент не оставили
193 - раза

Создавать темы 05-Сен-2015 22:58

[Профиль]  [ЛС] 

Rolex

Стаж: 5 лет 6 месяцев

Сообщений: 59

Симпатии: 11

949659скачан 181раз даже коммент не оставили
Чувак я наконец то посмотрел этот фильм. Если честно я такого трэша от Кейджа совсем не ожидал. Скучный, звуковое сопровождение ниже плинтуса. Сюжет скучный, политика политикой, но ! БЛИН! Это же КЕЙДЖ, где потрясающая игра, где его фирменные "стебулины"? ,где захватывающий сюжет ??? Где мать его Оружейный БАРОН?
Сильно расстроен что смотрел этот фильм, начиная с середины очень сильно боролся со сном, надеясь, что сюжет "раскурят", о боже 2 часа жизни... Я за это время 2 сайта склепаю! Жалею что посмотрел этот фильм так же и потому что увидел Кейджа другим. В общем истинным фанатам, оОооЙ как не советую.
Вот те и рецензия. Я даже не думал что так громить буду этот фильмец.

Создавать темы 09-Сен-2015 02:28

[Профиль]  [ЛС] 

Rolex

Стаж: 5 лет 6 месяцев

Сообщений: 59

Симпатии: 11

Ну и рейтинг на IMDB 4.5 говорит сам за себя. Даже знатное дерьм*цо с ТВ-3 не всегда себе позволяет такой рейтинг.

Создавать темы 09-Сен-2015 02:31

[Профиль]  [ЛС] 
Показать сообщения:    
Ответить на тему

Текущее время: 22-Авг 23:50

Часовой пояс: UTC + 5



Вы не можете начинать темы
Вы не можете отвечать на сообщения
Вы не можете редактировать свои сообщения
Вы не можете удалять свои сообщения
Вы не можете голосовать в опросах
Вы не можете прикреплять файлы к сообщениям
Вы не можете скачивать файлы