Цветок пустыни / Desert flower (Шерри Хорман) [2009, Великобритания, Германия, Австрия, Драма, биография, BDRip] (AVO : перевод - MMManja, озвучка - The LEXX)

Ответить на тему
 

кока ®

Стаж: 2 года

Сообщений: 4

Симпатии: 1

Цветок пустыни / Desert flower
Страна: Великобритания, Германия, Австрия
Жанр: Драма, биография
Год выпуска: 2009
Продолжительность: 2:07:40
Перевод: Авторский (одноголосый закадровый) Доп. инфо о переводе перевод - MMManja, озвучка - The LEXX
Cубтитры: нет
Режиссер: Шерри Хорман
В ролях: Лия Кебеде, Салли Хокинз, Крэйг Паркинсон, Мира Сайал, Сорая Омар-Скего, Тимоти Сполл, Энтони Маки, Джульет Стивенсон, Идрисс, Абдиллахи Хуфанех, Ава Саид Дарар ...
Описание: История Варис Дирие — простой девочки-кочевницы из Сомали. В 13 лет она сбежала из семьи, добралась до Могадишо, а потом оказалась в Лондоне. Через несколько лет ей удалось стать одной из популярнейших моделей мира.
Варис не была первой темнокожей топ-моделью, но она стала первой женщиной, которая публично осудила практику женского обрезания, была назначена специальным послом ООН и создала Фонд по борьбе с FGM.
Качество видео: BDRip
Формат видео: AVI
Видео: Xvid 720x384 1,85:1 24fps 1740kbps
Аудио: Dolby AC3 48000Hz 6ch (L,C,R,l,r, LFE) 448kbps

MediaInfo

Полное имя : D:\кино\Цветок Пустыни.avi
Формат : AVI
Формат/Информация : Audio Video Interleave
Размер файла : 1,96 Гбайт
Продолжительность : 2 ч. 7 м.
Общий поток : 2198 Кбит/сек
Программа кодирования : VirtualDubModRus 1.5.10.2 (build 2542/release)
Библиотека кодирования : VirtualDubMod build 2542/release
Видео
Идентификатор : 0
Формат : MPEG-4 Visual
Профиль формата : Advanced [email protected]
Параметр BVOP формата : 1
Параметр QPel формата : Нет
Параметр GMC формата : Без точки перехода
Параметр матрицы формата : Default (H.263)
Идентификатор кодека : XVID
Идентификатор кодека/Подсказка : XviD
Продолжительность : 2 ч. 7 м.
Битрейт : 1740 Кбит/сек
Ширина : 720 пикселей
Высота : 384 пикселя
Соотношение сторон : 1,85:1
Частота кадров : 24,000 кадра/сек
Цветовое пространство : YUV
Субдискретизация насыщенности : 4:2:0
Битовая глубина : 8 бит
Тип развёртки : Прогрессивная
Метод сжатия : С потерями
Бит/(Пиксели*Кадры) : 0.262
Размер потока : 1,55 Гбайт (79%)
Библиотека кодирования : XviD 1.2.0.dev47 (UTC 2006-11-01)
Аудио
Идентификатор : 1
Формат : AC-3
Формат/Информация : Audio Coding 3
Расширение режима : CM (complete main)
Параметр Endianness формата : Big
Идентификатор кодека : 2000
Продолжительность : 2 ч. 7 м.
Вид битрейта : Постоянный
Битрейт : 448 Кбит/сек
Каналы : 6 каналов
Расположение каналов : Front: L C R, Side: L R, LFE
Частота : 48,0 КГц
Метод сжатия : С потерями
Размер потока : 409 Мбайт (20%)
Выравнивание : Разделение по промежуткам
Продолжительность промежутка : 42 мс. (1,00 видеокадр)
Время предзагрузки промежутка : 500 мс.

Скриншоты


Создавать темы 03-Сен-2015 15:38

[Профиль]  [ЛС] 
Показать сообщения:    
Ответить на тему

Текущее время: 23-Сен 17:59

Часовой пояс: UTC + 5



Вы не можете начинать темы
Вы не можете отвечать на сообщения
Вы не можете редактировать свои сообщения
Вы не можете удалять свои сообщения
Вы не можете голосовать в опросах
Вы не можете прикреплять файлы к сообщениям
Вы не можете скачивать файлы