Этот неловкий момент / Un moment d'egarement (Жан-Франсуа Рише) [2015, Франция, комедия, мелодрама, WEB-DL 720p]

Ответить на тему
 

ladysco ®

Стаж: 5 лет 2 месяца

Сообщений: 40

Симпатии: 56

Этот неловкий момент / Un moment d'egarement
Страна: Франция
Жанр: комедия, мелодрама
Год выпуска: 2015
Продолжительность: 01:45:12
Перевод: Профессиональный (дублированный) [Чистый звук]
Cубтитры: нет
Режиссер: Жан-Франсуа Рише
В ролях: Венсан Кассель, Франсуа Клюзе, Алис Исааз, Лола Ле Ланн, Филипп Наон
Описание: Два закадычных друга со своими дочерьми проводят отпуск на Ривьере, где на солнечных пляжах 42-летнему отцу семейства не устоять перед чарами соблазнительной 18-летней красотки и предстоит по уши влюбиться. Все бы ничего, да только прелестная девушка является дочерью лучшего друга — строгого отца, грозящего пристрелить любого, кто подойдет ближе, чем на шаг, к обожаемой малышке.
Качество видео: WEB-DL 720p
Формат видео: MKV
Видео: MPEG, 1280x690, 25,000 fps, 2421 kbps, 0.110 bit/pixel
Аудио: AC3, 48 kHz, 2 ch, 192 kbps

MediaInfo

General
Format : Matroska
Format version : Version 4 / Version 2
File size : 1.96 GiB
Duration : 1h 45mn
Overall bit rate : 2 666 Kbps
Encoded date : UTC 2015-08-28 13:43:24
Writing application : mkvmerge v6.5.0 ('Isn't she lovely') built on Oct 20 2013 12:50:05
Writing library : libebml v1.3.0 + libmatroska v1.4.1
Video
ID : 1
Format : AVC
Format/Info : Advanced Video Codec
Format profile : [email protected]
Format settings, CABAC : Yes
Format settings, ReFrames : 4 frames
Codec ID : V_MPEG4/ISO/AVC
Duration : 1h 45mn
Bit rate : 2 421 Kbps
Width : 1 280 pixels
Height : 690 pixels
Display aspect ratio : 1.85:1
Frame rate mode : Constant
Frame rate : 25.000 fps
Color space : YUV
Chroma subsampling : 4:2:0
Bit depth : 8 bits
Scan type : Progressive
Bits/(Pixel*Frame) : 0.110
Stream size : 1.78 GiB (91%)
Language : Russian
Default : Yes
Forced : No
Audio
ID : 2
Format : AC-3
Format/Info : Audio Coding 3
Mode extension : CM (complete main)
Format settings, Endianness : Big
Codec ID : A_AC3
Duration : 1h 45mn
Bit rate mode : Constant
Bit rate : 192 Kbps
Channel(s) : 2 channels
Channel positions : Front: L R
Sampling rate : 48.0 KHz
Bit depth : 16 bits
Compression mode : Lossy
Stream size : 144 MiB (7%)
Language : Russian
Default : Yes
Forced : No

Скриншоты



Последний раз редактировалось: ladysco (2015-09-03 18:01), всего редактировалось 1 раз

Создавать темы 03-Сен-2015 16:55

[Профиль]  [ЛС] 

victor0778

Стаж: 6 лет 7 месяцев

Сообщений: 1670

Симпатии: 142

ladysco,
Перевод: Профессиональный (дублированный)[Чистый звук]
Качество видео: WEBRip WEB-DL 720p

Создавать темы 03-Сен-2015 17:55

[Профиль]  [ЛС] 
Показать сообщения:    
Ответить на тему

Текущее время: 22-Сен 02:04

Часовой пояс: UTC + 5



Вы не можете начинать темы
Вы не можете отвечать на сообщения
Вы не можете редактировать свои сообщения
Вы не можете удалять свои сообщения
Вы не можете голосовать в опросах
Вы не можете прикреплять файлы к сообщениям
Вы не можете скачивать файлы