Очень страшное кино 4 / Scary Movie 4 (Дэвид Цукер) [2006, США, ужасы, комедия, HDRip] (MVO) (Sub Rus)

Ответить на тему
 

lucky999 ®

Стаж: 1 год 11 месяцев

Сообщений: 32

Симпатии: 43

Очень страшное кино 4 / Scary Movie 4
Страна: США
Жанр: ужасы, комедия
Год выпуска: 2006
Продолжительность: 01:24:18
Перевод: Профессиональный (многоголосый закадровый)
Cубтитры: русские
Режиссер: Дэвид Цукер
В ролях: Анна Фарис, Реджина Холл, Крейг Бьерко, Билл Пуллман, Энтони Андерсон, Кармен Электра, Лесли Нильсен, Крис Элиотт, Молли Шэннон, Майкл Мэдсен
Описание: Журналистка Синди никак не может остановиться и снова оказывается в эпицентре ужасных и невероятных историй…
Качество видео: HDRip
Формат видео: AVI
Видео: Xvid 624x352 23.98fps 926kbps [Video 0]
Аудио: Dolby AC3 48000Hz stereo 224kbps [Audio 1]

MediaInfo

General
Complete name : D:\Библиотеки\Kino\Ужасы\Очень страшное кино\Очень страшное кино 4.avi
Format : AVI
Format/Info : Audio Video Interleave
File size : 700 MiB
Duration : 1h 24mn
Overall bit rate : 1 160 Kbps
Writing application : VirtualDubMod 1.5.10.1 (build 2369/release)
Writing library : VirtualDubMod build 2369/release
Video
ID : 0
Format : MPEG-4 Visual
Format profile : Advanced [email protected]
Format settings, BVOP : 1
Format settings, QPel : No
Format settings, GMC : No warppoints
Format settings, Matrix : Default (MPEG)
Muxing mode : Packed bitstream
Codec ID : XVID
Codec ID/Hint : XviD
Duration : 1h 24mn
Bit rate : 927 Kbps
Width : 624 pixels
Height : 352 pixels
Display aspect ratio : 16:9
Frame rate : 23.976 fps
Color space : YUV
Chroma subsampling : 4:2:0
Bit depth : 8 bits
Scan type : Progressive
Compression mode : Lossy
Bits/(Pixel*Frame) : 0.176
Stream size : 559 MiB (80%)
Writing library : XviD 1.1.0 (UTC 2005-11-22)
Audio
ID : 1
Format : AC-3
Format/Info : Audio Coding 3
Mode extension : CM (complete main)
Codec ID : 2000
Duration : 1h 24mn
Bit rate mode : Constant
Bit rate : 224 Kbps
Channel(s) : 2 channels
Channel positions : Front: L R
Sampling rate : 48.0 KHz
Bit depth : 16 bits
Compression mode : Lossy
Stream size : 135 MiB (19%)
Alignment : Split accross interleaves
Interleave, duration : 42 ms (1.00 video frame)
Interleave, preload duration : 500 ms

Скриншоты



Последний раз редактировалось: lucky999 (2015-11-06 06:11), всего редактировалось 4 раз(а)

Создавать темы 04-Сен-2015 16:46

[Профиль]  [ЛС] 

alewqa

Стаж: 5 лет 7 месяцев

Сообщений: 15

Почему невозможно скачать??

Создавать темы 04-Сен-2015 19:59

[Профиль]  [ЛС] 

mars751

Стаж: 5 лет 4 месяца

Сообщений: 227

Симпатии: 113

949580Почему невозможно скачать??
модераторы еще не проверили

Создавать темы 04-Сен-2015 20:07

[Профиль]  [ЛС] 

victor0778

Стаж: 6 лет 6 месяцев

Сообщений: 1670

Симпатии: 142

lucky999,
в природе не существует многоголосой закадровой озвучки, только дубляж
от куда здесь субтитры?
Качество видео: HDRip DVDRip
Скриншота должно быть 3 и оригинального размера, а не в разнобой
жанр этого фильма только комедия и ни как ни ужас


Последний раз редактировалось: victor0778 (2015-09-04 21:16), всего редактировалось 1 раз

Создавать темы 04-Сен-2015 21:14

[Профиль]  [ЛС] 

Топик был перенесен из форума Фильмы за 2015 в форум Фильмы до 2010
victor0778

Создавать темы 04-Сен-2015 21:14

 

inkus

Стаж: 7 лет 3 месяца

Сообщений: 50

Симпатии: 39

скажите а какое отношение имеет американский фильм к российскому кинематографу? может стоит в другую ветку перенести (кстати уже не первый фильм)

Создавать темы 05-Сен-2015 11:26

[Профиль]  [ЛС] 

mars751

Стаж: 5 лет 4 месяца

Сообщений: 227

Симпатии: 113

949605Главная » Кино, Видео и ТВ » Зарубежное кино » Фильмы до 2010
Главная » Кино, Видео и ТВ » Зарубежное кино » Фильмы до 2010

Создавать темы 07-Сен-2015 01:25

[Профиль]  [ЛС] 
Показать сообщения:    
Ответить на тему

Текущее время: 19-Авг 18:08

Часовой пояс: UTC + 5



Вы не можете начинать темы
Вы не можете отвечать на сообщения
Вы не можете редактировать свои сообщения
Вы не можете удалять свои сообщения
Вы не можете голосовать в опросах
Вы не можете прикреплять файлы к сообщениям
Вы не можете скачивать файлы