Рэмбо: Квадрология / Rambo: Quadrilogy (Тед Котчефф / Ted Kotcheff, Джордж Пан Косматос / George P. Cosmatos, Питер МакДоналд / Peter MacDonald, Сильвестр Сталлоне / Sylvester Stallone) [1982, 1985, 1988, 2008, США, боевик, BDRip 720p]

Ответить на тему
 

ruhal ®

Стаж: 2 года 6 месяцев

Сообщений: 1181

Симпатии: 1836

- - -Рэмбо Квадрология / Rambo Quadrilogy -

Рэмбо: Первая кровь / Rambo: First blood (1982)

- --«A one man war»-
Год выпуска: 1982
Страна: США
Жанр: Боевик, триллер, драма
Продолжительность: 01:33:11
Субтитры: Rus
Перевод:Профессиональный (Многоголосый)-Режиссер: Тед Котчефф-В ролях:Сильвестр Сталоне ,Ричард Кренна, Брайан Денннехи, Билл МакКинни, Джек Старретт, Майкл Тэлботт, Крис Малки, Джон МакЛайэм, Альф Хамфриз, Девид Карузо-Описание: Он - эксперт. Эксперт по оружию, ножам и собственному телу.
Он человек, специально обученный не замечать боль и погодные условия.
Он обучен быть неприхотливым, питаться такими вещами, которые заставят козла блевать.
Во Вьетнаме его задание было уничтожать вражеский личный состав. Много убивать.
Истощать силы врага до полной победы. Рэмбо был лучший. На войне он был героем,
а на родине, во имя которой проливалась кровь, он никому не нужен.
Неспособный адаптироваться к мирной жизни
Рэмбо путешествует автостопом по городам Америки, встречаясь с однополчанами.-Качество видео: BDRip
Формат: MKV
Видео: MPEG4 Video (H264) 1280x544 23.976fps
Аудио#1: Russian: 48 kHz, AC3 Dolby Digital, 3/2 (L,C,R,l,r) + LFE ch,~384 kbps avg |Многоголосый закадровый|
Аудио#2: Russian: 48 kHz, AC3 Dolby Digital, 3/2 (L,C,R,l,r) + LFE ch,~448 kbps avg |Одноголосый закадровый - Гаврилов|
Аудио#3: Russian: Vorbis 2.0, ~192 kbps avg |Writer commentary|
Аудио#4: Russian: Vorbis 2.0, ~192 kbps avg |Sylvester Stallone commentary|-

MediaInfo

General
Unique ID : 235660495763620437757487036564743036606 (0xB14A8F8034EDBCB0B1CC77A2FFF69EBE)
Complete name : E:\films\Rambo. Collection\First.Blood.1982.720p.mkv
Format : Matroska
Format version : Version 4 / Version 2
File size : 5.17 GiB
Duration : 1h 33mn
Overall bit rate : 7 935 Kbps
Encoded date : UTC 2015-06-09 02:58:28
Writing application : mkvmerge v6.7.0 ('Back to the Ground') 32bit built on Jan 8 2014 15:03:17
Writing library : libebml v1.3.0 + libmatroska v1.4.1
Video
ID : 1
Format : AVC
Format/Info : Advanced Video Codec
Format profile : [email protected]
Format settings, CABAC : Yes
Format settings, ReFrames : 5 frames
Codec ID : V_MPEG4/ISO/AVC
Duration : 1h 33mn
Bit rate : 5 206 Kbps
Width : 1 280 pixels
Height : 544 pixels
Display aspect ratio : 2.35:1
Frame rate mode : Constant
Frame rate : 23.976 fps
Color space : YUV
Chroma subsampling : 4:2:0
Bit depth : 8 bits
Scan type : Progressive
Bits/(Pixel*Frame) : 0.312
Stream size : 3.29 GiB (64%)
Writing library : x264 core 59 r859M ce13bb6
Encoding settings : cabac=1 / ref=5 / deblock=1:-3:-2 / analyse=0x3:0x113 / me=umh / subme=6 / me-prepass=0 / brdo=1 / mixed_ref=1 / me_range=16 / chroma_me=1 / trellis=0 / 8x8dct=1 / cqm=2 / deadzone=6,3 / chroma_qp_offset=0 / threads=6 / nr=0 / decimate=1 / mbaff=0 / fgo=0 / bframes=16 / b_pyramid=1 / b_adapt=1 / b_bias=0 / direct=1 / wpredb=1 / bime=1 / keyint=250 / keyint_min=25 / scenecut=40(pre) / rc=2pass / bitrate=5206 / ratetol=4.0 / rceq='blurCplx^(1-qComp)' / qcomp=1.00 / qpmin=10 / qpmax=51 / qpstep=4 / cplxblur=20.0 / qblur=0.5 / ip_ratio=1.40 / pb_ratio=1.30 / aq=2:1.00
Language : English
Default : Yes
Forced : No
Audio #1
ID : 2
Format : AC-3
Format/Info : Audio Coding 3
Mode extension : CM (complete main)
Format settings, Endianness : Big
Codec ID : A_AC3
Duration : 1h 33mn
Bit rate mode : Constant
Bit rate : 384 Kbps
Channel(s) : 6 channels
Channel positions : Front: L C R, Side: L R, LFE
Sampling rate : 48.0 KHz
Bit depth : 16 bits
Compression mode : Lossy
Stream size : 256 MiB (5%)
Title : закадровий багатоголосий
Language : Russian
Default : Yes
Forced : No
Audio #2
ID : 3
Format : AC-3
Format/Info : Audio Coding 3
Mode extension : CM (complete main)
Format settings, Endianness : Big
Codec ID : A_AC3
Duration : 1h 33mn
Bit rate mode : Constant
Bit rate : 448 Kbps
Channel(s) : 6 channels
Channel positions : Front: L C R, Side: L R, LFE
Sampling rate : 48.0 KHz
Bit depth : 16 bits
Compression mode : Lossy
Stream size : 299 MiB (6%)
Title : Гаврилов
Language : Russian
Default : No
Forced : No
Audio #3
ID : 4
Format : AC-3
Format/Info : Audio Coding 3
Mode extension : CM (complete main)
Format settings, Endianness : Big
Codec ID : A_AC3
Duration : 1h 33mn
Bit rate mode : Constant
Bit rate : 192 Kbps
Channel(s) : 2 channels
Channel positions : Front: L R
Sampling rate : 48.0 KHz
Bit depth : 16 bits
Compression mode : Lossy
Stream size : 128 MiB (2%)
Title : коментарі автора оригінального романа
Language : Russian
Default : No
Forced : No
Audio #4
ID : 5
Format : AC-3
Format/Info : Audio Coding 3
Mode extension : CM (complete main)
Format settings, Endianness : Big
Codec ID : A_AC3
Duration : 1h 33mn
Bit rate mode : Constant
Bit rate : 192 Kbps
Channel(s) : 2 channels
Channel positions : Front: L R
Sampling rate : 48.0 KHz
Bit depth : 16 bits
Compression mode : Lossy
Stream size : 128 MiB (2%)
Title : коментарі Сільвестра Сталонне
Language : Russian
Default : No
Forced : No
Audio #5
ID : 6
Format : DTS
Format/Info : Digital Theater Systems
Mode : 16
Format settings, Endianness : Big
Codec ID : A_DTS
Duration : 1h 33mn
Bit rate mode : Constant
Bit rate : 1 509 Kbps
Channel(s) : 6 channels
Channel positions : Front: L C R, Side: L R, LFE
Sampling rate : 48.0 KHz
Bit depth : 24 bits
Compression mode : Lossy
Stream size : 1 006 MiB (19%)
Title : eng
Language : English
Default : No
Forced : No
Text
ID : 7
Format : UTF-8
Codec ID : S_TEXT/UTF8
Codec ID/Info : UTF-8 Plain Text
Language : Russian
Default : Yes
Forced : No

Sceenshots



-

Рэмбо: Первая кровь II / Rambo: First Blood Part II (1985)

- - -Год выпуска: 1985
Страна: США
Жанр: Боевик, триллер, драма
Субтитры: Rus
Продолжительность: 01:35:58
Перевод:Профессиональный (Многоголосый)-Режиссер: Джордж Пан Косматос-В ролях: Сильвестр Сталлоне, Ричард Кренна, Чарльз Напье, Стивен Беркофф, Мартин Коув, Джордж Чунг, Энди Вуд-Описание: Джон Рэмбо отбывает наказание в тюрьме строгого режима.
Он смирился со своей участью, но несмотря на свое положение,
он продолжает чтить основные заповеди военного братства: верить напарнику,
прикрывать его спину, отдать свою жизнь за него и свою страну.
Когда полковник Траутман, бывший боевой командир Рэмбо предлагает ему отправиться во Вьетнам,
на спецоперацию по спасению оставшихся в плену американских солдат, он не раздумывая соглашается...
-Качество: BDRip
Формат: MKV
Видео: 1280x544 at 23.976 fps, x264, 2pass, ~4645 Kbps avg
Аудио#1: Russian: 48 kHz, AC3 Dolby Digital, 3/2 (L,C,R,l,r) + LFE ch,~384 kbps avg |Многоголосый закадровый|
Аудио#2: Russian: 48 kHz, AC3 Dolby Digital, 3/2 (L,C,R,l,r) + LFE ch,~448 kbps avg |Одноголосый закадровый - Живов|
Аудио#3: Russian: Vorbis 2.0, ~192 kbps avg |Director commentary|
Аудио#4: English: 48 kHz, DTS, 6 chn-

MediaInfo

General
Unique ID : 176712533615337015092562633894174517927 (0x84F19893B503F76083B7765D752DEAA7)
Complete name : E:\films\Rambo. Collection\Rambo.First.Blood.Part.II.1985.720p.mkv
Format : Matroska
Format version : Version 4 / Version 2
File size : 5.06 GiB
Duration : 1h 35mn
Overall bit rate : 7 547 Kbps
Encoded date : UTC 2015-06-09 03:15:13
Writing application : mkvmerge v6.7.0 ('Back to the Ground') 32bit built on Jan 8 2014 15:03:17
Writing library : libebml v1.3.0 + libmatroska v1.4.1
Video
ID : 1
Format : AVC
Format/Info : Advanced Video Codec
Format profile : [email protected]
Format settings, CABAC : Yes
Format settings, ReFrames : 5 frames
Codec ID : V_MPEG4/ISO/AVC
Duration : 1h 35mn
Bit rate : 5 011 Kbps
Width : 1 280 pixels
Height : 544 pixels
Display aspect ratio : 2.35:1
Frame rate mode : Constant
Frame rate : 23.976 fps
Color space : YUV
Chroma subsampling : 4:2:0
Bit depth : 8 bits
Scan type : Progressive
Bits/(Pixel*Frame) : 0.300
Stream size : 3.26 GiB (64%)
Writing library : x264 core 59 r859M ce13bb6
Encoding settings : cabac=1 / ref=5 / deblock=1:-3:-2 / analyse=0x3:0x113 / me=umh / subme=6 / me-prepass=0 / brdo=1 / mixed_ref=1 / me_range=16 / chroma_me=1 / trellis=0 / 8x8dct=1 / cqm=2 / deadzone=6,3 / chroma_qp_offset=0 / threads=6 / nr=0 / decimate=1 / mbaff=0 / fgo=0 / bframes=16 / b_pyramid=1 / b_adapt=1 / b_bias=0 / direct=1 / wpredb=1 / bime=1 / keyint=250 / keyint_min=25 / scenecut=40(pre) / rc=2pass / bitrate=5011 / ratetol=4.0 / rceq='blurCplx^(1-qComp)' / qcomp=1.00 / qpmin=10 / qpmax=51 / qpstep=4 / cplxblur=20.0 / qblur=0.5 / ip_ratio=1.40 / pb_ratio=1.30 / aq=2:1.00
Language : English
Default : Yes
Forced : No
Audio #1
ID : 2
Format : AC-3
Format/Info : Audio Coding 3
Mode extension : CM (complete main)
Format settings, Endianness : Big
Codec ID : A_AC3
Duration : 1h 35mn
Bit rate mode : Constant
Bit rate : 384 Kbps
Channel(s) : 6 channels
Channel positions : Front: L C R, Side: L R, LFE
Sampling rate : 48.0 KHz
Bit depth : 16 bits
Compression mode : Lossy
Stream size : 264 MiB (5%)
Title : закадровий багатоголосий
Language : Russian
Default : Yes
Forced : No
Audio #2
ID : 3
Format : AC-3
Format/Info : Audio Coding 3
Mode extension : CM (complete main)
Format settings, Endianness : Big
Codec ID : A_AC3
Duration : 1h 35mn
Bit rate mode : Constant
Bit rate : 448 Kbps
Channel(s) : 6 channels
Channel positions : Front: L C R, Side: L R, LFE
Sampling rate : 48.0 KHz
Bit depth : 16 bits
Compression mode : Lossy
Stream size : 308 MiB (6%)
Title : одноголосий, Гоблин
Language : Russian
Default : No
Forced : No
Audio #3
ID : 4
Format : AC-3
Format/Info : Audio Coding 3
Mode extension : CM (complete main)
Format settings, Endianness : Big
Codec ID : A_AC3
Duration : 1h 35mn
Bit rate mode : Constant
Bit rate : 192 Kbps
Channel(s) : 2 channels
Channel positions : Front: L R
Sampling rate : 48.0 KHz
Bit depth : 16 bits
Compression mode : Lossy
Stream size : 132 MiB (3%)
Title : коментарі режисера
Language : Russian
Default : No
Forced : No
Audio #4
ID : 5
Format : DTS
Format/Info : Digital Theater Systems
Mode : 16
Format settings, Endianness : Big
Codec ID : A_DTS
Duration : 1h 35mn
Bit rate mode : Constant
Bit rate : 1 509 Kbps
Channel(s) : 6 channels
Channel positions : Front: L C R, Side: L R, LFE
Sampling rate : 48.0 KHz
Bit depth : 24 bits
Compression mode : Lossy
Stream size : 1.01 GiB (20%)
Title : eng
Language : English
Default : No
Forced : No
Text
ID : 6
Format : UTF-8
Codec ID : S_TEXT/UTF8
Codec ID/Info : UTF-8 Plain Text
Language : Russian
Default : Yes
Forced : No

Screenshots



-

Рэмбо III / Rambo III (1988)

- - -Год выпуска: 1988
Страна: США
Жанр: Боевик, триллер, драма
Субтитры: Rus
Продолжительность: 01:41:40
Перевод:Профессиональный (Многоголосый)-Режиссер: Питер МакДоналд-В ролях:Сильвестр Сталлоне, Ричард Кренна, Марк де Джонг, Куртвуд Смит, Спирос Фокас, Сассон Габай, Алон Абутбаул, Джозеф Чилоч, Омар Шариф-Описание: Уставший убивать, Джон Рэмбо живет в буддийском монастыре.
Там он нашел смирение и покой. Он живет в согласии с самим собой и со всем миром.
И когда государство попыталось призвать на помощь своего верного солдата для ведения боевых действий в Афганистане,
он находит в себе силы отказаться. На него не может повлиять даже тот факт,
что операцию возглавляет полковник Траутман, человек, воспитавший и не раз спасавший его.
Но операция провалилась, полковник в плену. Шансов не спасение у него практически нет.
И тогда вспомнив, чем он обязан полковнику, Рэмбо отправляется в Афганистан, чтобы спасти учителя...-

Качество: BDRip
Формат: MKV
Видео: 1280x544 at 23.976 fps, x264, 2pass, ~4645 Kbps avg
Аудио#1: Russian: 48 kHz, AC3 Dolby Digital, 3/2 (L,C,R,l,r) + LFE ch,~384 kbps avg |Многоголосый закадровый|
Аудио#2: Russian: 48 kHz, AC3 Dolby Digital, 3/2 (L,C,R,l,r) + LFE ch,~448 kbps avg |Одноголосый закадровый - Живов|
Аудио#3: Russian: Vorbis 2.0, ~192 kbps avg |Director commentary|
Аудио#4: English: 48 kHz, DTS, 3/2 (L,C,R,l,r) + LFE ch,~1536 kbps avg

-

MediaInfo

General
Unique ID : 188098741819488479449648928269732355686 (0x8D827FFBE1EA48A6A4C1439B3DDF1E66)
Complete name : E:\films\Rambo. Collection\Rambo.III.1988.720p.mkv
Format : Matroska
Format version : Version 4 / Version 2
File size : 5.10 GiB
Duration : 1h 41mn
Overall bit rate : 7 180 Kbps
Encoded date : UTC 2015-06-09 03:33:44
Writing application : mkvmerge v6.7.0 ('Back to the Ground') 32bit built on Jan 8 2014 15:03:17
Writing library : libebml v1.3.0 + libmatroska v1.4.1
Video
ID : 1
Format : AVC
Format/Info : Advanced Video Codec
Format profile : [email protected]
Format settings, CABAC : Yes
Format settings, ReFrames : 5 frames
Codec ID : V_MPEG4/ISO/AVC
Duration : 1h 41mn
Bit rate : 4 646 Kbps
Width : 1 280 pixels
Height : 544 pixels
Display aspect ratio : 2.35:1
Frame rate mode : Constant
Frame rate : 23.976 fps
Color space : YUV
Chroma subsampling : 4:2:0
Bit depth : 8 bits
Scan type : Progressive
Bits/(Pixel*Frame) : 0.278
Stream size : 3.20 GiB (63%)
Writing library : x264 core 59 r859M ce13bb6
Encoding settings : cabac=1 / ref=5 / deblock=1:-3:-2 / analyse=0x3:0x113 / me=umh / subme=6 / me-prepass=0 / brdo=1 / mixed_ref=1 / me_range=16 / chroma_me=1 / trellis=0 / 8x8dct=1 / cqm=2 / deadzone=6,3 / chroma_qp_offset=0 / threads=6 / nr=0 / decimate=1 / mbaff=0 / fgo=0 / bframes=16 / b_pyramid=1 / b_adapt=1 / b_bias=0 / direct=1 / wpredb=1 / bime=1 / keyint=250 / keyint_min=25 / scenecut=40(pre) / rc=2pass / bitrate=4646 / ratetol=4.0 / rceq='blurCplx^(1-qComp)' / qcomp=1.00 / qpmin=10 / qpmax=51 / qpstep=4 / cplxblur=20.0 / qblur=0.5 / ip_ratio=1.40 / pb_ratio=1.30 / aq=2:1.00
Language : English
Default : Yes
Forced : No
Audio #1
ID : 2
Format : AC-3
Format/Info : Audio Coding 3
Mode extension : CM (complete main)
Format settings, Endianness : Big
Codec ID : A_AC3
Duration : 1h 41mn
Bit rate mode : Constant
Bit rate : 384 Kbps
Channel(s) : 6 channels
Channel positions : Front: L C R, Side: L R, LFE
Sampling rate : 48.0 KHz
Bit depth : 16 bits
Compression mode : Lossy
Stream size : 279 MiB (5%)
Title : закадровий багатоголосий
Language : Russian
Default : Yes
Forced : No
Audio #2
ID : 3
Format : AC-3
Format/Info : Audio Coding 3
Mode extension : CM (complete main)
Format settings, Endianness : Big
Codec ID : A_AC3
Duration : 1h 41mn
Bit rate mode : Constant
Bit rate : 448 Kbps
Channel(s) : 6 channels
Channel positions : Front: L C R, Side: L R, LFE
Sampling rate : 48.0 KHz
Bit depth : 16 bits
Compression mode : Lossy
Stream size : 326 MiB (6%)
Title : одноголосий, Живов
Language : Russian
Default : No
Forced : No
Audio #3
ID : 4
Format : AC-3
Format/Info : Audio Coding 3
Mode extension : CM (complete main)
Format settings, Endianness : Big
Codec ID : A_AC3
Duration : 1h 41mn
Bit rate mode : Constant
Bit rate : 192 Kbps
Channel(s) : 2 channels
Channel positions : Front: L R
Sampling rate : 48.0 KHz
Bit depth : 16 bits
Compression mode : Lossy
Stream size : 140 MiB (3%)
Title : коментарі режисера
Language : Russian
Default : No
Forced : No
Audio #4
ID : 5
Format : DTS
Format/Info : Digital Theater Systems
Mode : 16
Format settings, Endianness : Big
Codec ID : A_DTS
Duration : 1h 41mn
Bit rate mode : Constant
Bit rate : 1 509 Kbps
Channel(s) : 6 channels
Channel positions : Front: L C R, Side: L R, LFE
Sampling rate : 48.0 KHz
Bit depth : 24 bits
Compression mode : Lossy
Stream size : 1.07 GiB (21%)
Language : English
Default : No
Forced : No
Text
ID : 6
Format : UTF-8
Codec ID : S_TEXT/UTF8
Codec ID/Info : UTF-8 Plain Text
Language : Russian
Default : Yes
Forced : No

Screenshots



-

Рэмбо IV / Rambo IV (2008)

- - -Год выпуска: 2008
Страна: США
Жанр: Боевик, триллер, драма
Субтитры: Rus
Продолжительность: 01:31:31
Перевод:Профессиональный (Многоголосый)-Режиссер: Сильвестр Сталлоне-В ролях:Сильвестр Сталлоне, Джули Бенц, Мэттью Мэрсден, Грэм МакТавиш, Рейнальдо Галлегос, Джэйк Ла Ботц, Тим Кенг, Манг Манг Хим, Пол Шульц, Камерон Пирсон-Описание: Вьетнамский ветеран Джон Рэмбо ведет уединенный образ жизни на окраине Бангкока.
Уставший от борьбы и кровопролития, скрываясь от проблем, он селится в небольшом доме у реки и проводит дни,
ремонтируя старые лодки и катера. Однако судьба вновь заставляет его взяться за оружие.
Собрав отряд из пяти наемников, Рэмбо встает на защиту жителей тайской деревни и американских миссионеров,
которых захватили в заложники бирманские боевики...
-Качество: BDRip
Формат: MKV
Видео: MPEG4 Video (H264) 1280x528 23.976fps
Аудио#1: Russian: 48 kHz, DTS, 3/2 (L,C,R,l,r) + LFE ch,~768 kbps avg avg |Дубляж|
Аудио#2: English: 48 kHz, DTS, 3/2 (L,C,R,l,r) + LFE ch,~1536 kbps avg -

MediaInfo

General
Unique ID : 213793014153433626476075861703634970018 (0xA0D7096ACCD357B2B9B4C7246367E5A2)
Complete name : E:\films\Rambo. Collection\Rambo.IV.2008.720p.mkv
Format : Matroska
Format version : Version 4 / Version 2
File size : 4.85 GiB
Duration : 1h 31mn
Overall bit rate : 7 594 Kbps
Encoded date : UTC 2015-06-09 03:25:15
Writing application : mkvmerge v6.7.0 ('Back to the Ground') 32bit built on Jan 8 2014 15:03:17
Writing library : libebml v1.3.0 + libmatroska v1.4.1
Video
ID : 1
Format : AVC
Format/Info : Advanced Video Codec
Format profile : [email protected]
Format settings, CABAC : Yes
Format settings, ReFrames : 5 frames
Codec ID : V_MPEG4/ISO/AVC
Duration : 1h 31mn
Bit rate : 5 328 Kbps
Width : 1 280 pixels
Height : 528 pixels
Display aspect ratio : 2.40:1
Frame rate mode : Constant
Frame rate : 23.976 fps
Color space : YUV
Chroma subsampling : 4:2:0
Bit depth : 8 bits
Scan type : Progressive
Bits/(Pixel*Frame) : 0.329
Stream size : 3.31 GiB (68%)
Writing library : x264 core 59 r851M e11ef38
Encoding settings : cabac=1 / ref=5 / deblock=1:-3:-2 / analyse=0x3:0x113 / me=umh / subme=6 / me-prepass=0 / brdo=1 / mixed_ref=1 / me_range=16 / chroma_me=1 / trellis=0 / 8x8dct=1 / cqm=2 / deadzone=6,3 / chroma_qp_offset=0 / threads=3 / nr=0 / decimate=1 / mbaff=0 / fgo=10 / bframes=16 / b_pyramid=1 / b_adapt=1 / b_bias=0 / direct=1 / wpredb=1 / bime=1 / keyint=250 / keyint_min=25 / scenecut=40(pre) / rc=2pass / bitrate=5328 / ratetol=4.0 / rceq='blurCplx^(1-qComp)' / qcomp=1.00 / qpmin=10 / qpmax=51 / qpstep=4 / cplxblur=20.0 / qblur=0.5 / ip_ratio=1.40 / pb_ratio=1.15 / aq=2:1.00
Language : English
Default : Yes
Forced : No
Audio #1
ID : 2
Format : DTS
Format/Info : Digital Theater Systems
Mode : 16
Format settings, Endianness : Big
Codec ID : A_DTS
Duration : 1h 31mn
Bit rate mode : Constant
Bit rate : 755 Kbps
Channel(s) : 6 channels
Channel positions : Front: L C R, Side: L R, LFE
Sampling rate : 48.0 KHz
Bit depth : 24 bits
Compression mode : Lossy
Stream size : 494 MiB (10%)
Title : дубляж
Language : Russian
Default : Yes
Forced : No
Audio #2
ID : 3
Format : DTS
Format/Info : Digital Theater Systems
Mode : 16
Format settings, Endianness : Big
Codec ID : A_DTS
Duration : 1h 31mn
Bit rate mode : Constant
Bit rate : 1 509 Kbps
Channel(s) : 6 channels
Channel positions : Front: L C R, Side: L R, LFE
Sampling rate : 48.0 KHz
Bit depth : 24 bits
Compression mode : Lossy
Stream size : 988 MiB (20%)
Language : English
Default : No
Forced : No
Text
ID : 4
Format : UTF-8
Codec ID : S_TEXT/UTF8
Codec ID/Info : UTF-8 Plain Text
Language : Russian
Default : Yes
Forced : No

Screenshots



Создавать темы 04-Сен-2015 17:11

[Профиль]  [ЛС] 

ruhal ®

Стаж: 2 года 6 месяцев

Сообщений: 1181

Симпатии: 1836

Раздачи не будет, сдох хард

Создавать темы 05-Сен-2015 16:57

[Профиль]  [ЛС] 

Gen-X

Стаж: 4 года 9 месяцев

Сообщений: 125

Симпатии: 56

ddilik, мог бы докачать с внешки, перехешировать и раздать всем до 100%, то я смотрю релизёр старался, зря в архив отправлять этот релиз. Только вот где докачать с совпадающим хешом торрент я не нашёл, есть три трекера что я нашёл с внешки с тем же размером 20,18гб, но там DTS дорожка каждого фильма идёт отдельным файлом. Может релизёр или тот у кого он скопировал скачал из этих сайтов и перепаковал MKVToolNixом

Создавать темы 27-Сен-2015 18:06

[Профиль]  [ЛС] 
Показать сообщения:    
Ответить на тему

Текущее время: 22-Окт 11:37

Часовой пояс: UTC + 5



Вы не можете начинать темы
Вы не можете отвечать на сообщения
Вы не можете редактировать свои сообщения
Вы не можете удалять свои сообщения
Вы не можете голосовать в опросах
Вы не можете прикреплять файлы к сообщениям
Вы не можете скачивать файлы