Турбо Пацан / Turbo Kid (Франсуа Симар / Francois Simard) [2015, Канада, Новая Зеландия / EMA Films, фантастика, боевик, WEB-DLRip]

Ответить на тему
 

Saken ®

Стаж: 2 года 7 месяцев

Сообщений: 20

Симпатии: 38

Турбо Пацан / Turbo Kid
Страна: Канада, Новая Зеландия / EMA Films
Жанр: фантастика, боевик
Год выпуска: 2015
Продолжительность: 01:32:44
Перевод: Любительский (двухголосый закадровый) Доп. инфо о переводе Мтрск & StacyLagler - Ненормативная лексика
Cубтитры: нет
Режиссер: Франсуа Симар / Francois Simard
В ролях: Манро Чэмберс, Лоранс Лебёф, Майкл Айронсайд, Эдвин Райт, Аарон Джеффри, Романо Орцари, Orphée Ladouceur, Steeve Léonard, Ив Корбелл, Ивэн Манукян
Описание: Примерив костюм своего любимого героя комиксов, парнишка должен спасти новую странноватую подружку и положить конец правлению безумного тирана на просторах пост-апокалиптической пустоши.
Качество видео: WEB-DLRip
Формат видео: AVI
Видео: 720x304 (2.37:1), 23.976 fps, XviD build 73 ~2045 kbps avg, 0.39 bit/pixel
Аудио: 48 kHz, AC3 Dolby Digital, 2/0 (L,R) ch, ~192.00 kbps avg

MediaInfo

General
Complete name : D:\Turbo_Kid_2015_WEB-DLRip_by_Dalemake.avi
Format : AVI
Format/Info : Audio Video Interleave
File size : 1.46 GiB
Duration : 1h 32mn
Overall bit rate : 2 247 Kbps
Writing application : VirtualDubMod 1.5.10.3 | www.virtualdub-fr.org || (build 2550/release)
Writing library : VirtualDubMod build 2550/release
Video
ID : 0
Format : MPEG-4 Visual
Format profile : Advanced [email protected]
Format settings, BVOP : 1
Format settings, QPel : No
Format settings, GMC : No warppoints
Format settings, Matrix : Custom
Codec ID : XVID
Codec ID/Hint : XviD
Duration : 1h 32mn
Bit rate : 2 046 Kbps
Width : 720 pixels
Height : 304 pixels
Display aspect ratio : 2.35:1
Frame rate : 23.976 fps
Color space : YUV
Chroma subsampling : 4:2:0
Bit depth : 8 bits
Scan type : Progressive
Compression mode : Lossy
Bits/(Pixel*Frame) : 0.390
Stream size : 1.33 GiB (91%)
Writing library : XviD 73
Audio
ID : 1
Format : AC-3
Format/Info : Audio Coding 3
Mode extension : CM (complete main)
Format settings, Endianness : Big
Codec ID : 2000
Duration : 1h 32mn
Bit rate mode : Constant
Bit rate : 192 Kbps
Channel(s) : 2 channels
Channel positions : Front: L R
Sampling rate : 48.0 KHz
Bit depth : 16 bits
Compression mode : Lossy
Stream size : 127 MiB (9%)
Alignment : Split accross interleaves
Interleave, duration : 42 ms (1.00 video frame)
Interleave, preload duration : 500 ms

Скриншот c названием фильма

Скриншоты





Последний раз редактировалось: Saken (2015-09-05 18:38), всего редактировалось 4 раз(а)

Создавать темы 05-Сен-2015 14:40

[Профиль]  [ЛС] 

victor0778

Стаж: 6 лет 9 месяцев

Сообщений: 1670

Симпатии: 142

Saken,
Оригинальная аудиодорожка: русский - эту строку вообще уберите, фильм производство Канада, Новая Зеландия так что там не может быть оригинальная дорожка русская
Качество видео: CamRip WEB-DLRip
Скриншоты к нам на хостинг залейте, а не в мир

Создавать темы 05-Сен-2015 14:48

[Профиль]  [ЛС] 

Saken ®

Стаж: 2 года 7 месяцев

Сообщений: 20

Симпатии: 38

949616Saken,
Оригинальная аудиодорожка: русский - эту строку вообще уберите, фильм производство Канада, Новая Зеландия так что там не может быть оригинальная дорожка русская
Качество видео: CamRip WEB-DLRip
Скриншоты к нам на хостинг залейте, а не в мир
1. Строку Убрал
2. Качество видео изменил
3. Скриншоты перезалил

Создавать темы 05-Сен-2015 15:51

[Профиль]  [ЛС] 

victor0778

Стаж: 6 лет 9 месяцев

Сообщений: 1670

Симпатии: 142

9496273. Скриншоты перезалил
полноразмерные залейте 720x304 и почему Вы в личерах?

Создавать темы 05-Сен-2015 16:22

[Профиль]  [ЛС] 

netdrakon

Стаж: 6 лет 11 месяцев

Сообщений: 94

Симпатии: 1

Фильм в стиле 90х треш слешер. Прикольно сделали, мне понравился.

Создавать темы 05-Сен-2015 18:26

[Профиль]  [ЛС] 

zhozef

Стаж: 5 лет 10 месяцев

Сообщений: 35

Симпатии: 6

Рейтинг imdb: 7/10

Создавать темы 08-Сен-2015 13:39

[Профиль]  [ЛС] 

Saken ®

Стаж: 2 года 7 месяцев

Сообщений: 20

Симпатии: 38

ну норм

Создавать темы 11-Ноя-2015 18:03

[Профиль]  [ЛС] 

aleksman

Стаж: 6 лет 4 месяца

Сообщений: 52

Симпатии: 2

похож на кунг фьюри, очень похож.

Создавать темы 28-Ноя-2015 18:10

[Профиль]  [ЛС] 

totsamiy

Стаж: 5 лет 5 месяцев

Сообщений: 145

Симпатии: 22

мне тоже фильм понравился, интересный и смешной ))))

Создавать темы 07-Фев-2016 13:09

[Профиль]  [ЛС] 
Показать сообщения:    
Ответить на тему

Текущее время: 20-Ноя 18:53

Часовой пояс: UTC + 5



Вы не можете начинать темы
Вы не можете отвечать на сообщения
Вы не можете редактировать свои сообщения
Вы не можете удалять свои сообщения
Вы не можете голосовать в опросах
Вы не можете прикреплять файлы к сообщениям
Вы не можете скачивать файлы