Глупец Нобунага / Nobunaga the Fool (Сато Хидэкадзу) [TV] [Без хардсаба] [01-24 из 24] [RUS] [2014г., приключения, фантастика, меха HDTV-Rip] [720p]

Ответить на тему
 

SoluSoull ®

Стаж: 2 года 7 месяцев

Сообщений: 379

Симпатии: 452

Nobunaga the Fool
Глупец Нобунага-Производство: Япония
Год выпуска: 2014
Жанр: приключения, фантастика, меха
Тип: ТВ (24 эп.), 25 мин.-Перевод:
Озвучка от Inspector_Gadjet & Oriko (anidub)-Режиссёр: Сато Хидэкадзу
Автор оригинала: Кавамори Сёдзи
Студия: SATELIGHT-Описание: Запад есть Запад, Восток есть Восток, и с мест они не сойдут… В параллельном мире слова поэта верны вдвойне, ибо жители Запада и Востока в прямом смысле живут на разных планетах, причем только редкие посвященные в курсе, что творится у соседей. Расцвет цивилизации был давно и считается сказками, на дворе аналог нашего XVI века, люди все так же воюют, в общей атмосфере системы курсируют парусные воздушные корабли с ходячими доспехами в трюмах, а контакты между враждебными планетами строго запрещены. Впрочем, когда героев призывает судьба, слова властителей уже ничего не значат!
Леонардо да Винчи, великий мудрец Запада, уверен, что скоро явится Король-спаситель, который снова объединит две части целого. Свет всегда идет с Востока – и вот Леонардо, презрев монаршую волю, отправляется на запретную планету, прихватив пророчицу Жанну д'Арк, которая одна может узнать избранника. А в одной из стран Восточной планеты между тем живет молодой княжич Нобунага, которого окружающие за глаза кличут «глупым» и «дурачком», ибо парень так и фонтанирует странными и необычными идеями. Пока что ему верят только старые друзья Акэти и Тоётоми, но все изменится после обретения чудесного боевого робота, которого будущий завоеватель назовет «Глупцом»!-Качество: HDTVrip \ Формат: MP4
Тип видео: без хардсаба
Видео: AVC, 1280х720(16/9), 1 919 Kbps, 23.976fps, 8 bits
Аудио: AAC, 2 ch, 192кбит/с, 48000Hz-

Скриншоты


MI

General
Complete name : E:\FullSeries\[Others]\Nobunaga the Fool\[AniDub]_Nobunaga_the_Fool_01_[1280x720_x264]_[Inspector_Gadjet_and_Oriko].mp4
Format : MPEG-4
Format profile : Base Media
Codec ID : isom
File size : 374 MiB
Duration : 24mn 46s
Overall bit rate mode : Variable
Overall bit rate : 2 114 Kbps
Encoded date : UTC 2014-01-07 13:54:38
Tagged date : UTC 2014-01-07 13:54:38
Writing application : Yamb 2.1.0.0 [http://yamb.unite-video.com]
Video
ID : 1
Format : AVC
Format/Info : Advanced Video Codec
Format profile : [email protected]
Format settings, CABAC : Yes
Format settings, ReFrames : 4 frames
Codec ID : avc1
Codec ID/Info : Advanced Video Coding
Duration : 24mn 44s
Bit rate : 1 919 Kbps
Maximum bit rate : 11.7 Mbps
Width : 1 280 pixels
Height : 720 pixels
Display aspect ratio : 16:9
Frame rate mode : Constant
Frame rate : 23.976 fps
Color space : YUV
Chroma subsampling : 4:2:0
Bit depth : 8 bits
Scan type : Progressive
Bits/(Pixel*Frame) : 0.087
Stream size : 340 MiB (91%)
Title : 264:[email protected]
Writing library : x264 core 129 r2245+729M 1a52e03
Encoding settings : cabac=1 / ref=4 / deblock=1:1:-1 / analyse=0x3:0x113 / me=umh / subme=9 / psy=1 / fade_compensate=0.00 / psy_rd=1.00:0.00 / mixed_ref=1 / me_range=24 / chroma_me=1 / trellis=2 / 8x8dct=1 / cqm=0 / deadzone=21,11 / fast_pskip=1 / chroma_qp_offset=-2 / threads=8 / lookahead_threads=1 / sliced_threads=0 / nr=0 / decimate=1 / interlaced=0 / bluray_compat=0 / constrained_intra=0 / fgo=0 / bframes=9 / b_pyramid=2 / b_adapt=2 / b_bias=0 / direct=1 / weightb=1 / open_gop=0 / weightp=2 / keyint=240 / keyint_min=24 / scenecut=40 / intra_refresh=0 / rc=crf / mbtree=0 / crf=19.0 / qcomp=0.72 / qpmin=0 / qpmax=69 / qpstep=4 / ip_ratio=1.40 / pb_ratio=1.30 / aq=1:0.85
Encoded date : UTC 2014-01-05 20:08:48
Tagged date : UTC 2014-01-07 13:54:58
Color primaries : BT.709
Transfer characteristics : BT.709
Matrix coefficients : BT.709
Color range : Limited
Audio
ID : 2
Format : AAC
Format/Info : Advanced Audio Codec
Format profile : LC
Codec ID : 40
Duration : 24mn 46s
Bit rate mode : Variable
Bit rate : 192 Kbps
Maximum bit rate : 199 Kbps
Channel(s) : 2 channels
Channel positions : Front: L R
Sampling rate : 48.0 KHz
Compression mode : Lossy
Stream size : 34.0 MiB (9%)
Title : [Inspector_Gadjet_and_Oriko]
Language : Russian
Encoded date : UTC 2014-01-07 13:54:57
Tagged date : UTC 2014-01-07 13:54:58

Отличия

ЯП дорожка + сабы
https://tas-ix.net/viewtopic.php?t=108649

Создавать темы 05-Сен-2015 15:05

[Профиль]  [ЛС] 
Показать сообщения:    
Ответить на тему

Текущее время: 20-Окт 19:11

Часовой пояс: UTC + 5



Вы не можете начинать темы
Вы не можете отвечать на сообщения
Вы не можете редактировать свои сообщения
Вы не можете удалять свои сообщения
Вы не можете голосовать в опросах
Вы не можете прикреплять файлы к сообщениям
Вы не можете скачивать файлы