Рок-звезда / Rock Star (Стивен Херек / Stephen Herek) [2001, США, драма, BDRip] (Sub Rus, Eng + Original Eng)

Ответить на тему
 

ladysco ®

Стаж: 5 лет 2 месяца

Сообщений: 40

Симпатии: 56

Рок-звезда / Rock Star
Страна: США
Жанр: драма
Год выпуска: 2001
Продолжительность: 01:46:06
Перевод: Профессиональный (дублированный) [Мост-видео]
Cубтитры: русские + английские (обычные; SDH)
Оригинальная аудиодорожка: английский
Режиссер: Стивен Херек / Stephen Herek
В ролях: Марк Уолберг, Дженнифер Энистон, Доминик Уэст, Джейсон Флеминг, Тимоти Сполл, Тимоти Олифант, Закк Уайлд, Джейсон Бонем, Джефф Пилсон, Блас Елиас
Описание: Днем Крис Коул занимается починкой копировальной техники. По ночам он — подражает рок-группе «Steel Dragon» самой крутой в мире «тяжелого металла». Неожиданно ему представилась удивительная возможность: стать новым солистом настоящего «Steel Dragon»!
В одночасье он, никому не известный парнишка из маленького городка, становится супер-звездой. В одночасье он, и его менеджер/подружка Эмили погружаются в мир безумства, которое трудно себе представить.
Качество видео: BDRip
Формат видео: AVI
Видео: XviD, 720x304, 23.976 fps, 2096 kbps avg, 0.399 bit/pixel
Аудио RUS: 48 kHz, AC3, 6 ch, 384.00 kbps
Аудио ENG: 48 kHz, AC3, 6 ch, 448.00 kbps
Формат субтитров: softsub (SRT)

MediaInfo

General
Format : AVI
Format/Info : Audio Video Interleave
Format profile : OpenDML
File size : 2.18 GiB
Duration : 1h 46mn
Overall bit rate : 2 946 Kbps
Movie name : Рок-звезда / Rock Star (2001) BDRip
Director : yaroslaigor
Genre : драма, комедия, музыка
Writing application : VirtualDubMod 1.5.10.2 (build 2542/release)
Copyright : http://hqclub.net/
Comment : 22.04.2014
Video
ID : 0
Format : MPEG-4 Visual
Format profile : Advanced [email protected]
Format settings, BVOP : 1
Format settings, QPel : No
Format settings, GMC : No warppoints
Format settings, Matrix : Custom
Codec ID : XVID
Codec ID/Hint : XviD
Duration : 1h 46mn
Bit rate : 2 096 Kbps
Width : 720 pixels
Height : 304 pixels
Display aspect ratio : 2.35:1
Frame rate : 23.976 fps
Color space : YUV
Chroma subsampling : 4:2:0
Bit depth : 8 bits
Scan type : Progressive
Compression mode : Lossy
Bits/(Pixel*Frame) : 0.399
Stream size : 1.55 GiB (71%)
Writing library : XviD 65
Audio #1
ID : 1
Format : AC-3
Format/Info : Audio Coding 3
Mode extension : CM (complete main)
Format settings, Endianness : Big
Codec ID : 2000
Duration : 1h 46mn
Bit rate mode : Constant
Bit rate : 384 Kbps
Channel(s) : 6 channels
Channel positions : Front: L C R, Side: L R, LFE
Sampling rate : 48.0 KHz
Bit depth : 16 bits
Compression mode : Lossy
Stream size : 291 MiB (13%)
Alignment : Split accross interleaves
Interleave, duration : 42 ms (1.00 video frame)
Interleave, preload duratio : 500 ms
Audio #2
ID : 2
Format : AC-3
Format/Info : Audio Coding 3
Mode extension : CM (complete main)
Format settings, Endianness : Big
Codec ID : 2000
Duration : 1h 46mn
Bit rate mode : Constant
Bit rate : 448 Kbps
Channel(s) : 6 channels
Channel positions : Front: L C R, Side: L R, LFE
Sampling rate : 48.0 KHz
Bit depth : 16 bits
Compression mode : Lossy
Stream size : 340 MiB (15%)
Alignment : Split accross interleaves
Interleave, duration : 42 ms (1.00 video frame)
Interleave, preload duratio : 500 ms

Скриншоты

Создавать темы 05-Сен-2015 18:40

[Профиль]  [ЛС] 
Показать сообщения:    
Ответить на тему

Текущее время: 22-Сен 14:58

Часовой пояс: UTC + 5



Вы не можете начинать темы
Вы не можете отвечать на сообщения
Вы не можете редактировать свои сообщения
Вы не можете удалять свои сообщения
Вы не можете голосовать в опросах
Вы не можете прикреплять файлы к сообщениям
Вы не можете скачивать файлы