Воздух / Air (Кристиан Кантамесса / Christian Cantamessa) [2015, США, фантастика, триллер, WEB-DLRip] (VO : Хихикающий доктор)

Ответить на тему
 

Saken ®

Стаж: 2 года 8 месяцев

Сообщений: 20

Симпатии: 38

Воздух / Air
Страна: США
Жанр: фантастика, триллер
Год выпуска: 2015
Продолжительность: 01:34:26
Перевод: Одноголосый закадровый Доп. инфо о переводе Хихикающий доктор
Cубтитры: нет
Режиссер: Кристиан Кантамесса / Christian Cantamessa
В ролях: Норман Ридус, Джимон Хонсу, Сандрин Холт, Майкл Хоган, Питер Бенсон, Дэвид Найкл, Паула Линдберг, Стив Бёрджесс
Описание: В центре сюжета два человека, герои Ридуса и Хонсу. Атмосфера стала совершенно непригодной для жизни, настал апокалипсис. Но у человечества еще есть шанс на спасение. Группа людей, ученых, выжила, благодаря криогенной заморозке. Только они способны спасти жизнь на Земле, и главным героям предстоит охранять их криогенный сон. Но, как оказалось, это задача не из самых простых. Впереди ребят ожидают неимоверные испытания.
Качество видео: WEB-DLRip
Формат видео: AVI
Видео: Xvid 720x304 23.98fps 1 874 Kbps
Аудио: Dolby AC3 44100Hz stereo 192kbps

MediaInfo

Format : AVI
Format/Info : Audio Video Interleave
File size : 1.37 GiB
Duration : 1h 34mn
Overall bit rate : 2 076 Kbps
Writing application : VirtualDubMod 1.5.10.3 | www.virtualdub-fr.org || (build 2550/release)
Writing library : VirtualDubMod build 2550/release
Video
ID : 0
Format : MPEG-4 Visual
Format profile : Advanced [email protected]
Format settings, BVOP : Yes
Format settings, QPel : No
Format settings, GMC : No warppoints
Format settings, Matrix : Custom
Codec ID : XVID
Codec ID/Hint : XviD
Duration : 1h 34mn
Bit rate : 1 874 Kbps
Width : 720 pixels
Height : 304 pixels
Display aspect ratio : 2.35:1
Frame rate : 23.976 fps
Resolution : 8 bits
Colorimetry : 4:2:0
Scan type : Progressive
Bits/(Pixel*Frame) : 0.357
Stream size : 1.24 GiB (90%)
Writing library : XviD 73
Audio
ID : 1
Format : AC-3
Format/Info : Audio Coding 3
Codec ID : 2000
Duration : 1h 34mn
Bit rate mode : Constant
Bit rate : 192 Kbps
Channel(s) : 2 channels
Channel positions : L R
Sampling rate : 44.1 KHz
Stream size : 130 MiB (9%)
Alignment : Split accross interleaves
Interleave, duration : 42 ms (1.00 video frame)
Interleave, preload duration : 500 ms

Скриншот c названием фильма

Скриншоты






Создавать темы 06-Сен-2015 10:07

[Профиль]  [ЛС] 

victor0778

Стаж: 6 лет 10 месяцев

Сообщений: 1670

Симпатии: 142

Saken, в шапке тоже указывайте правильное качество

Создавать темы 06-Сен-2015 13:16

[Профиль]  [ЛС] 

elmar

Стаж: 6 лет 10 месяцев

Сообщений: 44

Симпатии: 4

слабенький фильмец

Создавать темы 06-Сен-2015 21:20

[Профиль]  [ЛС] 

zhozef

Стаж: 5 лет 11 месяцев

Сообщений: 35

Симпатии: 6

Рейтинг imdb: 5,1/10

Создавать темы 08-Сен-2015 13:37

[Профиль]  [ЛС] 

Saken ®

Стаж: 2 года 8 месяцев

Сообщений: 20

Симпатии: 38

я бы не сказал

Создавать темы 11-Ноя-2015 18:00

[Профиль]  [ЛС] 
Показать сообщения:    
Ответить на тему

Текущее время: 11-Дек 12:24

Часовой пояс: UTC + 5



Вы не можете начинать темы
Вы не можете отвечать на сообщения
Вы не можете редактировать свои сообщения
Вы не можете удалять свои сообщения
Вы не можете голосовать в опросах
Вы не можете прикреплять файлы к сообщениям
Вы не можете скачивать файлы