Вымирание / Extinction (Мигель Анхель Вивас) [2015, Испания, Франция, США, Венгрия, ужасы, фантастика, драма, WEB-DLRip]

Ответить на тему
 

UZM ®

Стаж: 5 лет 4 месяца

Сообщений: 169

Симпатии: 189

Вымирание / Extinction
Страна: Испания, Франция, США, Венгрия
Жанр: ужасы, фантастика, драма
Год выпуска: 2015
Продолжительность: 1:52:44
Перевод: Любительский (двухголосый закадровый)
Cубтитры: нет
Режиссер: Мигель Анхель Вивас
В ролях: Мэттью Фокс, Джеффри Донован, Куинн Маккоулган, Валерия Веро, Клара Лаго
Описание: После нескольких сотен тысяч лет эволюции и превосходства, люди были почти уничтожены с лица Земли. В течение всего лишь нескольких дней инфекция превратила их в диких существ без интеллекта, они стали злыми и безжалостными. Через семь лет после этого, мы находим небольшой городок — Harmony, покрытый многолетними снегами. Двое мужчин, давние друзья Патрик и Джек, и дочь Джека, Лу, — единственные оставшиеся в живых. Тем не менее, они не общаются или даже не признают друг друга. Что-то ужасное произошло между ними и глубокая неумолимая ненависть прекратила их дружбу давным-давно.
Качество видео: WEB-DLRip
Формат видео: AVI
Видео: 720x304, 23.976fps, 1368kbps
Аудио: 48.0Hz, 6 channels, 448kbps

MediaInfo

General
Complete name : F:\Кино\Вымирание.DVO.avi
Format : AVI
Format/Info : Audio Video Interleave
File size : 1.44 GiB
Duration : 1h 52mn
Overall bit rate : 1 826 Kbps
Video
ID : 0
Format : MPEG-4 Visual
Format profile : Advanced [email protected]
Format settings, BVOP : 2
Format settings, QPel : No
Format settings, GMC : No warppoints
Format settings, Matrix : Default (H.263)
Codec ID : DX50
Codec ID/Hint : DivX 5
Duration : 1h 52mn
Bit rate : 1 368 Kbps
Width : 720 pixels
Height : 304 pixels
Display aspect ratio : 2.35:1
Frame rate : 23.976 fps
Color space : YUV
Chroma subsampling : 4:2:0
Bit depth : 8 bits
Scan type : Progressive
Compression mode : Lossy
Bits/(Pixel*Frame) : 0.261
Stream size : 1.08 GiB (75%)
Writing library : XviD 66
Audio
ID : 1
Format : AC-3
Format/Info : Audio Coding 3
Mode extension : CM (complete main)
Format settings, Endianness : Big
Codec ID : 2000
Duration : 1h 52mn
Source duration : 1h 52mn
Bit rate mode : Constant
Bit rate : 448 Kbps
Channel(s) : 6 channels
Channel positions : Front: L C R, Side: L R, LFE
Sampling rate : 48.0 KHz
Bit depth : 16 bits
Compression mode : Lossy
Stream size : 361 MiB (25%)
Alignment : Aligned on interleaves
Interleave, duration : 42 ms (1.00 video frame)

Скриншот c названием фильма

[img]http://img.tas-ix.net/images/2015/09/06/65c050710b1...2c32f794b9cc.jpg

Скриншоты

, ,


Последний раз редактировалось: UZM (2015-09-07 09:58), всего редактировалось 2 раз(а)

Создавать темы 06-Сен-2015 22:40

[Профиль]  [ЛС] 

victor0778

Стаж: 6 лет 7 месяцев

Сообщений: 1670

Симпатии: 142

UZM, поправил)

Создавать темы 07-Сен-2015 10:00

[Профиль]  [ЛС] 

UZM ®

Стаж: 5 лет 4 месяца

Сообщений: 169

Симпатии: 189

victor0778, Спасибо больщое! Весьма рад! Буду учиться правильно оформлять.

Создавать темы 07-Сен-2015 13:33

[Профиль]  [ЛС] 

mars751

Стаж: 5 лет 5 месяцев

Сообщений: 227

Симпатии: 113

надо взглянуть на фильм

Создавать темы 08-Сен-2015 00:22

[Профиль]  [ЛС] 

Rolex

Стаж: 5 лет 7 месяцев

Сообщений: 59

Симпатии: 11

949996надо взглянуть на фильм
Достойный фильмец. Не сказать что бы он сорвал все пять звёзд. Но Хорош! Очень хорош =) .

Создавать темы 11-Сен-2015 22:19

[Профиль]  [ЛС] 

killer_said

Стаж: 6 лет 7 месяцев

Сообщений: 183

Симпатии: 54

950644
949996надо взглянуть на фильм
Достойный фильмец. Не сказать что бы он сорвал все пять звёзд. Но Хорош! Очень хорош =) .
ты хоть смотрел фильм? фильм полный пи... bc bc aq . Чтоб ты здох режисер фильма. Таких "американских" тупых фильмов просто бесят. Вот моменты ... нимогу описать свое разочарование... 1/10 bz

Создавать темы 15-Окт-2015 21:16

[Профиль]  [ЛС] 

SkoroXod

Стаж: 2 года

Сообщений: 99

Симпатии: 78

Фильм на любителя. Мне не понравился. Стоит отметить, что художественно фильм снят хорошо. По содержанию он больше рассчитан не на зрелищность, а на диалоги. На то, чтобы зритель понял внутреннюю драму персонажей.
Однако, по-моему, совершенно скучный сюжет, стремительно развивающийся только к концу фильма и как бы выплёвывающий развитием событий, в кульминационной части фильма, затем переходящий к быстрой развязке, меня не впечатлил.
Оценка: 5/10

Создавать темы 17-Окт-2015 15:24

[Профиль]  [ЛС] 
Показать сообщения:    
Ответить на тему

Текущее время: 25-Сен 18:31

Часовой пояс: UTC + 5



Вы не можете начинать темы
Вы не можете отвечать на сообщения
Вы не можете редактировать свои сообщения
Вы не можете удалять свои сообщения
Вы не можете голосовать в опросах
Вы не можете прикреплять файлы к сообщениям
Вы не можете скачивать файлы