Загадай желание / Wish Upon a Star (Блэр Трэ) [1996, США, фэнтези, комедия, семейный, DVDRip] (MVO) (Original Eng)

Ответить на тему
 

akmal-19-66 ®

Стаж: 2 года 5 месяцев

Сообщений: 23

Симпатии: 120

Загадай желание / Wish Upon a Star
Страна: США
Жанр: фэнтези, комедия, семейный
Год выпуска: 1996
Продолжительность: 01:25:53-Перевод: Профессиональный (многоголосый закадровый)
Cубтитры: нет
Оригинальная аудиодорожка: английский-Режиссер: Блэр Трэ-В ролях: Кэтрин Хайгл, Даниэль Харрис, Дон Джефкоат, Скотт Уилкинсон, Мэри Паркер Уильямс, Лоис Чайлз, Айви Ллойд, Мэтт Баркер, Жак Грэй, Кари Петерсен-Описание: Алексия и Хайли — родные сестры, но они совсем непохожи друг на друга. Алексия, старшая сестра, любит красиво одеваться, у нее есть мальчик и учеба ее мало интересует. Хайли, наоборот, много занимается. Однажды Хайли, увидев падающую звезду, загадывает желание: поменяться местами со своей сестрой.-Качество видео: DVDRip
Формат видео: AVI-Видео: Xvid 688x528 25.00fps 2030kbps
Аудио: AC3 48000Hz stereo 192kbps [rus/eng]

MediaInfo

General
Complete name : C:\2\Torrent upload\Загадай желание\Zagadai.jelanie.1996.DVDRip.XviD.AC3.rus.MVO.avi
Format : AVI
Format/Info : Audio Video Interleave
File size : 1.46 GiB
Duration : 1h 25mn
Overall bit rate : 2 429 Kbps
Movie name : Wish Upon a Star
Director : Blair Treu
Genre : Comedy
Writing application : VirtualDubModRus 1.5.10.2 (build 2542/release)
Original source form/Name : Movie
Copyright : http://upload.by/
Comment : by demon1
Video
ID : 0
Format : MPEG-4 Visual
Format profile : Advanced [email protected]
Format settings, BVOP : Yes
Format settings, QPel : No
Format settings, GMC : No warppoints
Format settings, Matrix : Custom
Codec ID : XVID
Codec ID/Hint : XviD
Duration : 1h 25mn
Bit rate : 2 030 Kbps
Width : 688 pixels
Height : 528 pixels
Display aspect ratio : 4:3
Frame rate : 25.000 fps
Color space : YUV
Chroma subsampling : 4:2:0
Bit depth : 8 bits
Scan type : Progressive
Bits/(Pixel*Frame) : 0.224
Stream size : 1.22 GiB (84%)
Writing library : XviD 64
Audio #1
ID : 1
Format : AC-3
Format/Info : Audio Coding 3
Mode extension : CM (complete main)
Codec ID : 2000
Duration : 1h 25mn
Bit rate mode : Constant
Bit rate : 192 Kbps
Channel(s) : 2 channels
Channel positions : Front: L R
Sampling rate : 48.0 KHz
Stream size : 118 MiB (8%)
Alignment : Split accross interleaves
Interleave, duration : 40 ms (1.00 video frame)
Interleave, preload duration : 500 ms
Audio #2
ID : 2
Format : AC-3
Format/Info : Audio Coding 3
Mode extension : CM (complete main)
Codec ID : 2000
Duration : 1h 25mn
Bit rate mode : Constant
Bit rate : 192 Kbps
Channel(s) : 2 channels
Channel positions : Front: L R
Sampling rate : 48.0 KHz
Stream size : 118 MiB (8%)
Alignment : Split accross interleaves
Interleave, duration : 40 ms (1.00 video frame)
Interleave, preload duration : 500 ms

Скриншоты






Последний раз редактировалось: akmal-19-66 (2015-09-07 09:48), всего редактировалось 2 раз(а)

Создавать темы 07-Сен-2015 01:39

[Профиль]  [ЛС] 

Lolochka

Стаж: 5 лет 6 месяцев

Сообщений: 29

Симпатии: 9

почему у меня не качает?

Создавать темы 19-Сен-2015 21:29

[Профиль]  [ЛС] 
Показать сообщения:    
Ответить на тему

Текущее время: 18-Окт 10:45

Часовой пояс: UTC + 5



Вы не можете начинать темы
Вы не можете отвечать на сообщения
Вы не можете редактировать свои сообщения
Вы не можете удалять свои сообщения
Вы не можете голосовать в опросах
Вы не можете прикреплять файлы к сообщениям
Вы не можете скачивать файлы