9 апреля / 9. april (Рони Эзра) [2015, Дания, драма, военный, HDRip] (Dub : [Project Web Money])

Ответить на тему
 

Behzod5555 ®

Стаж: 2 года 3 месяца

Сообщений: 21

Симпатии: 55

9 апреля / 9. april-- Страна: Дания--Жанр: драма, военный--Год выпуска: 2015--Продолжительность: 01:32:32--Перевод: Любительский (одноголосый) [Project Web Money]--Режиссер: Рони Эзра--В ролях: Ларс Миккельсен, Йохан Филип Асбек, Хоаким Фьелструп, Густав Дюэкьер Гис, Себастьян Булл Сарнинг, Мартин Грайс-Описание: Ранним утром 9 апреля 1940 года датская армия была поднята по тревоге. Немцы перешли границу. Дания вступает в войну против сильнейшей армии в Европе. Сюжет фильма рассказывает о втором лейтенанте Сэнде и его велосипедной компании — в этот роковой час именно они будут первыми датскими солдатами встретившими врага в бою.-Качество видео: HDRip
Формат видео: AVI-Видео: XviD, 1912 Kbps, 720x384
Аудио: AC3, 192 Kbps, 2 ch-

MediaInfo

General
Complete name : D:\Down\9.A.2015.HDRip.avi
Format : AVI
Format/Info : Audio Video Interleave
File size : 1.37 GiB
Duration : 1h 32mn
Overall bit rate : 2 114 Kbps
Writing application : VirtualDubMod 1.5.10.3 | www.virtualdub-fr.org || (build 2550/release)
Writing library : VirtualDubMod build 2550/release
Video
ID : 0
Format : MPEG-4 Visual
Format profile : Advanced [email protected]
Format settings, BVOP : Yes
Format settings, QPel : No
Format settings, GMC : No warppoints
Format settings, Matrix : Default (H.263)
Codec ID : XVID
Codec ID/Hint : XviD
Duration : 1h 32mn
Bit rate : 1 912 Kbps
Width : 720 pixels
Height : 384 pixels
Display aspect ratio : 1.85:1
Frame rate : 24.000 fps
Color space : YUV
Chroma subsampling : 4:2:0
Bit depth : 8 bits
Scan type : Progressive
Compression mode : Lossy
Bits/(Pixel*Frame) : 0.288
Stream size : 1.24 GiB (90%)
Writing library : XviD 1.2.1 (UTC 2008-12-04)
Audio
ID : 1
Format : AC-3
Format/Info : Audio Coding 3
Mode extension : CM (complete main)
Format settings, Endianness : Big
Codec ID : 2000
Duration : 1h 32mn
Bit rate mode : Constant
Bit rate : 192 Kbps
Channel(s) : 2 channels
Channel positions : Front: L R
Sampling rate : 48.0 KHz
Bit depth : 16 bits
Compression mode : Lossy
Stream size : 127 MiB (9%)
Alignment : Split accross interleaves
Interleave, duration : 42 ms (1.00 video fra

Скриншот c названием фильма

Скриншоты




Создавать темы 07-Сен-2015 14:23

[Профиль]  [ЛС] 

victor0778

Стаж: 6 лет 9 месяцев

Сообщений: 1670

Симпатии: 142

Утром 9 апреля силы Рейха вторглись на территорию Дании и в течение шести часов оккупировали королевство.
Через час после начала операции правительство и король отдали приказ вооружённым силам не оказывать сопротивление агрессору и капитулировали.
Уже в 10 часов правительство Дании обратилось к народу с призывом сохранять спокойствие и не сопротивляться оккупации
В целом, операция по оккупации Дании заняла несколько часов, потери германской армии составили 2 военнослужащих убитыми и 10 ранеными.
А вот что было на самом деле)

Создавать темы 07-Сен-2015 17:00

[Профиль]  [ЛС] 

victor0778

Стаж: 6 лет 9 месяцев

Сообщений: 1670

Симпатии: 142

вот такое кино)

Создавать темы 07-Сен-2015 17:01

[Профиль]  [ЛС] 
Показать сообщения:    
Ответить на тему

Текущее время: 19-Ноя 09:38

Часовой пояс: UTC + 5



Вы не можете начинать темы
Вы не можете отвечать на сообщения
Вы не можете редактировать свои сообщения
Вы не можете удалять свои сообщения
Вы не можете голосовать в опросах
Вы не можете прикреплять файлы к сообщениям
Вы не можете скачивать файлы