Воительницы в бикини / Bikini Warriors [TV] [12 из 12] [Без хардсаба] [RUS(int)] [приключения, фэнтези, этти,HDTVRip] [720] [AniDub]

Ответить на тему
 

maksimus_1712 ®

Стаж: 4 года 2 месяца

Сообщений: 122

Симпатии: 68

- - Год: 2015
Жанр: приключения, фэнтези, этти
Страна: Япония
Количество серий: 12
Продолжительность: 5 мин
Дата выпуска: c 08.07.2015
Озвучивание: Torgil, Cuba77
Перевод: Jenia aka Zub-Режиссер: Кудзуя Наоюки
Автор оригинала / Сценарист: Кавахара Масанобу
Студия : -Описание : Веселые и опасные приключения весьма сексапильных воительниц. Их главное оружие - бикини...и формы...те самые формы...формы всем формам формы!!!
World Art-Качество: HDTVRip
Формат видео: MP4
Видео: x264; 1280х720; 23.976fps; ~1800 kbps
Аудио: Rus - Aac; 48.0 khz; 2.0ch; 192kbps

MediaInfo

General
Complete name                  : [AniDub]_Bikini Warriors_[01]_[720p].mp4
Format                         : MPEG-4
Format profile                 : Base Media
Codec ID                       : isom
File size                      : 139 MiB
Duration                       : 3mn 59s
Overall bit rate mode          : Variable
Overall bit rate               : 4 853 Kbps
Encoded date                   : UTC 2015-07-08 11:46:57
Tagged date                    : UTC 2015-07-08 11:46:57
Video
ID                             : 1
Format                         : AVC
Format/Info                    : Advanced Video Codec
Format profile                 : [email protected]
Format settings, CABAC         : Yes
Format settings, ReFrames      : 4 frames
Codec ID                       : avc1
Codec ID/Info                  : Advanced Video Coding
Duration                       : 3mn 59s
Bit rate                       : 4 658 Kbps
Maximum bit rate               : 14.5 Mbps
Width                          : 1 280 pixels
Height                         : 720 pixels
Display aspect ratio           : 16:9
Frame rate mode                : Constant
Frame rate                     : 23.976 fps
Color space                    : YUV
Chroma subsampling             : 4:2:0
Bit depth                      : 8 bits
Scan type                      : Progressive
Bits/(Pixel*Frame)             : 0.211
Stream size                    : 133 MiB (96%)
Title                          : 264
Writing library                : x264 core 129 r2245+729M 1a52e03
Encoding settings              : cabac=1 / ref=4 / deblock=1:1:-1 / analyse=0x3:0x113 / me=umh / subme=9 / psy=1 / fade_compensate=0.00 / psy_rd=1.00:0.00 / mixed_ref=1 / me_range=24 / chroma_me=1 / trellis=2 / 8x8dct=1 / cqm=0 / deadzone=21,11 / fast_pskip=1 / chroma_qp_offset=-2 / threads=8 / lookahead_threads=1 / sliced_threads=0 / nr=0 / decimate=1 / interlaced=0 / bluray_compat=0 / constrained_intra=0 / fgo=0 / bframes=9 / b_pyramid=2 / b_adapt=2 / b_bias=0 / direct=1 / weightb=1 / open_gop=0 / weightp=2 / keyint=240 / keyint_min=24 / scenecut=40 / intra_refresh=0 / rc=crf / mbtree=0 / crf=18.5 / qcomp=0.72 / qpmin=0 / qpmax=69 / qpstep=4 / ip_ratio=1.40 / pb_ratio=1.30 / aq=1:0.85
Encoded date                   : UTC 2015-07-07 18:04:21
Tagged date                    : UTC 2015-07-08 11:47:01
Color primaries                : BT.709
Transfer characteristics       : BT.709
Matrix coefficients            : BT.709
Audio
ID                             : 2
Format                         : AAC
Format/Info                    : Advanced Audio Codec
Format profile                 : LC
Codec ID                       : 40
Duration                       : 3mn 59s
Bit rate mode                  : Variable
Bit rate                       : 192 Kbps
Maximum bit rate               : 195 Kbps
Channel(s)                     : 2 channels
Channel positions              : Front: L R
Sampling rate                  : 48.0 KHz
Compression mode               : Lossy
Stream size                    : 5.48 MiB (4%)
Language                       : English
Encoded date                   : UTC 2015-07-08 11:47:01
Tagged date                    : UTC 2015-07-08 11:47:01

Скриншоты






Последний раз редактировалось: maksimus_1712 (2015-09-24 22:05), всего редактировалось 3 раз(а)

Создавать темы 08-Сен-2015 00:42

[Профиль]  [ЛС] 

SNIL

Стаж: 5 лет 9 месяцев

Сообщений: 2624

Симпатии: 341

Если релизер не против могу обновить до фулл

Создавать темы 24-Сен-2015 09:49

[Профиль]  [ЛС] 

Топик был перенесен из форума Аниме онгоинги в форум HD, HDTVRip
SNIL

Создавать темы 24-Сен-2015 22:07

 

Xatiman

Стаж: 1 год 10 месяцев

Сообщений: 38

Симпатии: 2

ребят раздачу плиз. 4 серии осталось!!

Создавать темы 15-Дек-2015 15:06

[Профиль]  [ЛС] 

Xatiman

Стаж: 1 год 10 месяцев

Сообщений: 38

Симпатии: 2

maksimus_1712, maksimus_1712, раздачу плиз

Создавать темы 15-Дек-2015 15:07

[Профиль]  [ЛС] 

Xatiman

Стаж: 1 год 10 месяцев

Сообщений: 38

Симпатии: 2

все скачалось теперь раздаю!

Создавать темы 18-Дек-2015 16:55

[Профиль]  [ЛС] 

Kurbanov Aydos

Стаж: 1 год 9 месяцев

Сообщений: 1

Плз Раздачу

Создавать темы 03-Окт-2016 12:50

[Профиль]  [ЛС] 
Показать сообщения:    
Ответить на тему

Текущее время: 22-Окт 08:01

Часовой пояс: UTC + 5



Вы не можете начинать темы
Вы не можете отвечать на сообщения
Вы не можете редактировать свои сообщения
Вы не можете удалять свои сообщения
Вы не можете голосовать в опросах
Вы не можете прикреплять файлы к сообщениям
Вы не можете скачивать файлы