Мстители: Эра Альтрона / Avengers: Age of Ultron (Джосс Уидон) [2015, фантастика, боевик, приключения, WEB-DLRip] DUB - Лицензия / iTunes

Ответить на тему
 

mp1988 ®

Стаж: 6 лет 6 месяцев

Сообщений: 607

Симпатии: 971

Мстители: Эра Альтрона / Avengers: Age of Ultron-- Год выпуска: 2015
Страна: США / Marvel Studios
Жанр: фантастика, боевик, триллер, приключения
Продолжительность: 02:21:18
Перевод: Дублированное [iTunes]--В ролях:
Роберт Дауни мл., Крис Хемсворт, Крис Эванс, Скарлетт Йоханссон, Марк Руффало, Джереми Реннер, Аарон Тейлор-Джонсон, Элизабет Олсен, Джеймс Спэйдер, Сэмюэл Л. Джексон
Режиссёр: Джосс Уидон / Joss Whedon
Описание:
Человечество на грани уничтожения. На этот раз людям угрожает Альтрон - искусственный интеллект, ранее созданный для того, чтобы защищать Землю от любых угроз. Однако, главной угрозой он посчитал человечество. Международная организация Щ. И. Т. распалась, и теперь мир не способен справиться с таким мощным врагом, потому люди вновь обращаются за помощью к Величайшим Героям Земли - Мстителям. Однако Альтрон слишком силен, и есть большая вероятность, что даже им не удастся остановить начало надвигающейся Эры Альтрона, где нет места для людей...
Качество: WEB-DLRip
Формат: AVI
Видео кодек: (XviD)
Аудио кодек: AC3
Видео: 1084 Кбит/с, 720x304
Аудио: 384 kb/s (6 ch)

MediaInfo:

General
Complete name : F:\кино\Mst1t3li.2015.D.WEBDLRip.1400MB.avi
Format : AVI
Format/Info : Audio Video Interleave
File size : 1.46 GiB
Duration : 2h 21mn
Overall bit rate : 1 477 Kbps
Writing application : VirtualDubMod 1.5.10.3 | www.virtualdub-fr.org || (build 2550/release)
Writing library : VirtualDubMod build 2550/release
Video
ID : 0
Format : MPEG-4 Visual
Format profile : Advanced [email protected]
Format settings, BVOP : 2
Format settings, QPel : No
Format settings, GMC : No warppoints
Format settings, Matrix : Default (MPEG)
Codec ID : XVID
Codec ID/Hint : XviD
Duration : 2h 21mn
Bit rate : 1 084 Kbps
Width : 720 pixels
Height : 304 pixels
Display aspect ratio : 2.35:1
Frame rate : 23.976 fps
Color space : YUV
Chroma subsampling : 4:2:0
Bit depth : 8 bits
Scan type : Progressive
Compression mode : Lossy
Bits/(Pixel*Frame) : 0.206
Stream size : 1.07 GiB (73%)
Writing library : XviD 1.2.1 (UTC 2008-12-04)
Audio
ID : 1
Format : AC-3
Format/Info : Audio Coding 3
Mode extension : CM (complete main)
Format settings, Endianness : Big
Codec ID : 2000
Duration : 2h 21mn
Bit rate mode : Constant
Bit rate : 384 Kbps
Channel(s) : 6 channels
Channel positions : Front: L C R, Side: L R, LFE
Sampling rate : 48.0 KHz
Bit depth : 16 bits
Compression mode : Lossy
Stream size : 389 MiB (26%)
Alignment : Split accross interleaves
Interleave, duration : 42 ms (1.00 video frame)
Interleave, preload duratio : 500 ms

Скриншоты




Создавать темы 08-Сен-2015 08:09

[Профиль]  [ЛС] 

axeman

Стаж: 4 года 9 месяцев

Сообщений: 380

Симпатии: 50

Наконец то, дождались. будем так же ждать терминатор, мир юрского периода.и.т.п.

Создавать темы 08-Сен-2015 10:16

[Профиль]  [ЛС] 

Saken

Стаж: 2 года 4 месяца

Сообщений: 20

Симпатии: 38

Вопрос: Почему нельзя добавить в контекстное меню WEB-DLRip, приходится исправлять постоянно в шапке и в теле?

Создавать темы 08-Сен-2015 11:30

[Профиль]  [ЛС] 

victor0778

Стаж: 6 лет 6 месяцев

Сообщений: 1670

Симпатии: 142

950033Вопрос: Почему нельзя добавить в контекстное меню WEB-DLRip, приходится исправлять постоянно в шапке и в теле?
надеюсь в ближайшее время добавим туда

Создавать темы 08-Сен-2015 16:27

[Профиль]  [ЛС] 

totsamiy

Стаж: 5 лет 2 месяца

Сообщений: 145

Симпатии: 22

дождусь HD..... надеюсь терпение не лопнет..))))

Создавать темы 16-Сен-2015 22:21

[Профиль]  [ЛС] 

Evropa

Стаж: 6 лет 7 месяцев

Сообщений: 174

Симпатии: 30

Всегда меня интересовал загадки, головоломки. Тут я нашел 4.

1:27 - Тони Старк одет в футболке, на которой Брюс Ли стоит за диджейским пультом и крутит виниловые пластинки. И что это? Прикол? У кого инфо? Я искал трнете мало что нашел...
Ест инфо футболка продается:
Модель: Bow & Arrow Bruce Lee Gung Fu Scratch (Poly Rayon)
Цена: $34

----------------------------------

2:13 - В сцене после первых титров Танос надевает Перчатку Бесконечности и произносит фразу: «Ладно, я сделаю это сам». Титан тут причем? Следующая серия против Титана?
----------------------------------

2:02 - зачем забрать тело умершего человека-мутанта? И кстати появилься слово "мутант". Даже в сериале-сквеля "Агенты Щ.И.Т.а" тоже появилься в конце (20-серия) слово "мутант". Я думаю что у Ртута есть ускоренный метаболизм и прочие особенности тела, способствующие к регенерации, а Доктор Чо (тот кореянка который регенировал тело) "воскресит" Ртута. А это означает что против титана появляется X-Люди!!!.
Следующая серия: Мстители и X-люди против Титана :)) Может присоединятся пару фант.4 ?))
А вы как думаете?

----------------------------------
Кстати это я нашел:

2:07- Соколиный Глаз, он же Клинт Бартон, назвал своего сына Натаниэль Пьетро Бартон в честь персонажа Ртути/Пьетро Максимофф который спас его в битве с Альтроном. В конце фильма Наташа Романофф видит сына Бартона у себя на телефоне, на нем одежда с надписью «Nathaniel Pietro Barton»
[/url]

Создавать темы 12-Окт-2015 22:30

[Профиль]  [ЛС] 

RocknRollа

Стаж: 3 года 6 месяцев

Сообщений: 38

Симпатии: 6

как скачать?

Создавать темы 10-Ноя-2015 21:42

[Профиль]  [ЛС] 
Показать сообщения:    
Ответить на тему

Текущее время: 19-Авг 03:09

Часовой пояс: UTC + 5



Вы не можете начинать темы
Вы не можете отвечать на сообщения
Вы не можете редактировать свои сообщения
Вы не можете удалять свои сообщения
Вы не можете голосовать в опросах
Вы не можете прикреплять файлы к сообщениям
Вы не можете скачивать файлы