Z – значит Захария / Z for Zachariah (Крэйг Зобел) [2015, США, фантастика, драма, триллер, WEB-DLRip-AVC] (MVO : [Хихидок]) (Sub Eng)

Ответить на тему
 

Behzod5555 ®

Стаж: 2 года

Сообщений: 21

Симпатии: 55

Z – значит Захария / Z for Zachariah-- Страна: США--Жанр: фантастика, драма, триллер-Год выпуска: 2015--Продолжительность: 01:37:55-Перевод: Любительский (одноголосый закадровый) [Хихидок]--Cубтитры: английские-Режиссер: Крэйг Зобел--В ролях: Чиветель Эджиофор, Марго Робби, Крис Пайн-Описание: В разрушенном ядерной войной мире чудом смогла выжить 16-летняя Энн. Она встречает взрослого ученого по имени Люмис, который уже потерял надежду найти свою семью. Энн взрослеет, между ней и Люмисом рождаются чувства. Ситуация усложняется, когда появляется третий выживший — молодой парень Калеб. Начинается война за последнюю женщину на земле…--Качество видео: WEB-DLRip-AVC
Формат видео: MKV-Видео: AVC, 2250 kbps, 1024x428
Аудио: MP3, 2 ch, 192 kbps--

MediaInfo

General
Unique ID : 254691346072248773314380556484712407799 (0xBF9BC4DD083DE642A8D684BD8A0922F7)
Complete name : D:\Down\Z.for.Zachariah.2015.L1.AVC.WEB-DLRip.H264.mkv
Format : Matroska
Format version : Version 4 / Version 2
File size : 1.65 GiB
Duration : 1h 37mn
Overall bit rate : 2 410 Kbps
Encoded date : UTC 2015-08-28 11:58:03
Writing application : mkvmerge v8.1.0 ('Psychedelic Postcard') 32bit
Writing library : Lavf56.22.100
DURATION : 01:20:45.273000000
NUMBER_OF_FRAMES : 914
NUMBER_OF_BYTES : 33263
_STATISTICS_WRITING_APP : mkvmerge v8.1.0 ('Psychedelic Postcard') 32bit
_STATISTICS_WRITING_DATE_UTC : 2015-09-07 11:23:47
_STATISTICS_TAGS : BPS DURATION NUMBER_OF_FRAMES NUMBER_OF_BYTES
Video
ID : 1
Format : AVC
Format/Info : Advanced Video Codec
Format profile : [email protected]
Format settings, CABAC : Yes
Format settings, ReFrames : 8 frames
Codec ID : V_MPEG4/ISO/AVC
Duration : 1h 37mn
Bit rate : 2 250 Kbps
Width : 1 024 pixels
Height : 428 pixels
Display aspect ratio : 2.40:1
Frame rate mode : Constant
Frame rate : 23.976 fps
Standard : Component
Color space : YUV
Chroma subsampling : 4:2:0
Bit depth : 8 bits
Scan type : Progressive
Bits/(Pixel*Frame) : 0.214
Stream size : 1.48 GiB (90%)
Writing library : x264 core 144 r2525
Encoding settings : cabac=1 / ref=8 / deblock=1:0:0 / analyse=0x3:0x102 / me=umh / subme=7 / psy=1 / psy_rd=1.00:1.00 / mixed_ref=0 / me_range=32 / chroma_me=1 / trellis=1 / 8x8dct=1 / cqm=0 / deadzone=21,21 / fast_pskip=1 / chroma_qp_offset=-4 / threads=6 / lookahead_threads=1 / sliced_threads=0 / nr=0 / decimate=1 / interlaced=0 / bluray_compat=0 / constrained_intra=0 / bframes=7 / b_pyramid=0 / b_adapt=1 / b_bias=7 / direct=3 / weightb=1 / open_gop=1 / weightp=2 / keyint=239 / keyint_min=23 / scenecut=46 / intra_refresh=0 / rc_lookahead=35 / rc=2pass / mbtree=1 / bitrate=2250 / ratetol=1.0 / qcomp=0.60 / qpmin=16 / qpmax=69 / qpstep=12 / cplxblur=20.0 / qblur=0.5 / vbv_maxrate=39000 / vbv_bufsize=45000 / nal_hrd=none / filler=0 / ip_ratio=1.40 / aq=1:1.00
Default : Yes
Forced : No
DURATION : 01:37:54.917000000
NUMBER_OF_FRAMES : 140858
NUMBER_OF_BYTES : 1627433758
_STATISTICS_WRITING_APP : mkvmerge v8.1.0 ('Psychedelic Postcard') 32bit
_STATISTICS_WRITING_DATE_UTC : 2015-09-07 11:23:47
_STATISTICS_TAGS : BPS DURATION NUMBER_OF_FRAMES NUMBER_OF_BYTES
Audio
ID : 2
Format : MPEG Audio
Format version : Version 1
Format profile : Layer 3
Codec ID : A_MPEG/L3
Codec ID/Hint : MP3
Duration : 1h 37mn
Bit rate mode : Constant
Bit rate : 192 Kbps
Channel(s) : 2 channels
Sampling rate : 44.1 KHz
Compression mode : Lossy
Delay relative to video : -42ms
Stream size : 134 MiB (8%)
Language : Russian
Default : Yes
Forced : No
Text #1
ID : 3
Format : UTF-8
Codec ID : S_TEXT/UTF8
Codec ID/Info : UTF-8 Plain Text
Language : English
Default : No
Forced : No
Text #2
ID : 4
Format : UTF-8
Codec ID : S_TEXT/UTF8
Codec ID/Info : UTF-8 Plain Text
Language : English
Default : No
Forced : No
Menu
00:00:00.000 : en:1
00:10:22.000 : en:2
00:20:25.000 : en:3
00:30:21.000 : en:4
00:40:41.000 : en:5
00:47:36.000 : en:6
00:56:31.000 : en:7
01:06:29.000 : en:8
01:16:57.000 : en:9
01:22:29.000 : en:10
01:30:45.000 : en:11

Скриншот c названием фильма

Скриншоты






Создавать темы 08-Сен-2015 15:43

[Профиль]  [ЛС] 

victor0778

Стаж: 6 лет 6 месяцев

Сообщений: 1670

Симпатии: 142

Behzod5555, в шапке тоже качество меняйте)

Создавать темы 08-Сен-2015 16:26

[Профиль]  [ЛС] 
Показать сообщения:    
Ответить на тему

Текущее время: 17-Авг 22:35

Часовой пояс: UTC + 5



Вы не можете начинать темы
Вы не можете отвечать на сообщения
Вы не можете редактировать свои сообщения
Вы не можете удалять свои сообщения
Вы не можете голосовать в опросах
Вы не можете прикреплять файлы к сообщениям
Вы не можете скачивать файлы