Видеоуроки по работе с осциллографом [2009, RUS]

Ответить на тему
 

SkoroXod ®

Стаж: 2 года 2 месяца

Сообщений: 99

Симпатии: 78

Видеоуроки по работе с осциллографом
Год выпуска: 2009
Сайт производителя: easyelectronics.ru
Продолжительность: 17 минут
Тип раздаваемого материала: Видеоклипы
Язык: Русский
Описание: Два видеоурока про использование и работу осциллографа. Автор на практике показывает и рассказывает про основные настройки аналогового и цифрового осциллографов, и их особенностях в тестировании различных схем.
Первый из видеоуроков "1.Использование осциллографа" посвящен изучению основных элементов осциллографа, в ходе которого автор рассказывает принцип работы осциллографа и как правильно пользоваться этим прибором.
Во втором видеоуроке "2.Работа с осциллографом" автор на практике показывает как отлаживаются схемы с помощью цифровых и аналоговых осциллографов. Рассказывает про их сильные и слабые стороны в ходе отладки схем.

Содержание

1.Использование осциллографа
2.Работа с осциллографом
Формат видео: MPEG
Видео: MPEG-4 (480:360 пикселей)
Аудио: AAC

Скриншоты



МедиаИнфо:

General
Format : MPEG-4
Format profile : Base Media / Version 2
Codec ID : mp42
File size : 34.9 MiB
Duration : 9mn 59s
Overall bit rate mode : Variable
Overall bit rate : 489 Kbps
Encoded date : UTC 2009-12-09 16:05:54
Tagged date : UTC 2009-12-09 16:05:54
gsst : 0
gstd : 600235
gssd : BADC23A22HH1340891724996596
gshh : o-o.preferred.svo01s01.v14.nonxt8.c.youtube.com
Video
ID : 2
Format : AVC
Format/Info : Advanced Video Codec
Format profile : [email protected]
Format settings, CABAC : No
Format settings, ReFrames : 1 frame
Format settings, GOP : M=1, N=30
Codec ID : avc1
Codec ID/Info : Advanced Video Coding
Duration : 9mn 59s
Bit rate : 426 Kbps
Maximum bit rate : 1 059 Kbps
Width : 480 pixels
Height : 360 pixels
Display aspect ratio : 4:3
Frame rate mode : Constant
Frame rate : 29.970 fps
Color space : YUV
Chroma subsampling : 4:2:0
Bit depth : 8 bits
Scan type : Progressive
Bits/(Pixel*Frame) : 0.082
Stream size : 30.4 MiB (87%)
Title : (C) 2007 Google Inc. v08.13.2007.
Encoded date : UTC 2009-12-09 16:05:54
Tagged date : UTC 2009-12-09 16:05:55
Audio
ID : 1
Format : AAC
Format/Info : Advanced Audio Codec
Format profile : LC
Codec ID : 40
Duration : 9mn 59s
Bit rate mode : Variable
Bit rate : 60.5 Kbps
Maximum bit rate : 68.8 Kbps
Channel(s) : 1 channel
Channel positions : Front: C
Sampling rate : 44.1 KHz
Compression mode : Lossy
Stream size : 4.33 MiB (12%)
Title : (C) 2007 Google Inc. v08.13.2007.
Encoded date : UTC 2009-12-09 16:05:54
Tagged date : UTC 2009-12-09 16:05:55
Доп. информация: Рекомендуется радиолюбителям желающим понять принципы работы с осциллографом.

Создавать темы 08-Сен-2015 23:26

[Профиль]  [ЛС] 

nyted

Стаж: 5 лет 8 месяцев

Сообщений: 33

Симпатии: 9

А нету ли случаем программы для PC-осциллографа вместе со схемой подключения щупов? Только реально работающей?

Создавать темы 10-Сен-2015 11:38

[Профиль]  [ЛС] 

SkoroXod ®

Стаж: 2 года 2 месяца

Сообщений: 99

Симпатии: 78

Где-то на диске была такая, надо найти. Если Вам нужно, напишите мне в личку. Но, такие осциллографы ограничены, кажется, 22.000 Герцами, то есть частотой Вашей звуковой платы. Вот здесь есть тема, если интересно http://radio-stv.ru/radio_tehnologii/izuchenie-radi...ter-ostsillograf внешка

Создавать темы 13-Сен-2015 00:40

[Профиль]  [ЛС] 

Боксер

Стаж: 2 года 3 месяца

Сообщений: 54

Симпатии: 34

Спасибо

Создавать темы 15-Сен-2015 19:30

[Профиль]  [ЛС] 
Показать сообщения:    
Ответить на тему

Текущее время: 25-Ноя 08:43

Часовой пояс: UTC + 5



Вы не можете начинать темы
Вы не можете отвечать на сообщения
Вы не можете редактировать свои сообщения
Вы не можете удалять свои сообщения
Вы не можете голосовать в опросах
Вы не можете прикреплять файлы к сообщениям
Вы не можете скачивать файлы