Ложь во спасение / The Good Lie (Филипп Фалардо) [2014, Кения, Индия, США, Драма, HDRip] (iTunes Russia | Original Eng)

Ответить на тему
 

bbk ®

Стаж: 7 лет

Сообщений: 435

Симпатии: 479

Ложь во спасение / The Good Lie
Страна: Кения, Индия, США
Жанр: Драма
Год выпуска: 2014
Продолжительность: 01:49:59
Перевод: Профессиональный многоголосый | [iTunes Russia]
Cубтитры: нет
Режиссер: Филипп Фалардо
В ролях: Риз Уизерспун, Арнольд Окенг, Хер Дуани, Эммануэль Джал, Кори Столл, Куот Виль, Феми Огунс, Сара Бэйкер, Линдси Гаррет
Описание: Военные беженцы из Судана получили разрешение на иммиграцию в Канзас-Сити, спустя 13 лет после того, как попали в лагерь беженцев, спасаясь от пуль солдат. Здесь им предстоит начать жизнь заново, найти работу, преодолевать трудности. "Потерянные мальчики Судана" - так назвали этих детей гражданской войны, разразившейся в Судане в 1983 году, когда сжигались целые деревни, а бомбы летели на мирные селения, уничтожая детей, стариков, женщин...
Дата мировой премьеры: 7 сентября 2014
Дата российской премьеры: 3 сентября 2015
 
Качество видео: HDRip
Формат видео: AVI
Видео: MPEG4, XviD, 720x400 (16:9), 23.976 fps, 1 887 Kbps (0.273 bit/pixel)
Аудио: AC-3, 48.0 KHz, 6 ch, 384 Kbps, CBR - русский
Аудио 2: AC-3, 48.0 KHz, 6 ch, 384 Kbps, CBR - английский

MediaInfo

General
    Complete name : The.Good.Lie.2014.HDRip.avi
    Format : AVI
    Format/Info : Audio Video Interleave
    Format profile : OpenDML
    File size : 2.05 GiB
    Duration : 1h 49mn
    Overall bit rate : 2 673 Kbps
    Writing application : VirtualDubMod 1.5.10.2 (build 2540/release)
    Writing library : VirtualDubMod build 2540/release
  Video #0
    ID : 0
    Format : MPEG-4 Visual
    Format profile : Advanced [email protected]
    Format settings, BVOP : 2
    Format settings, QPel : No
    Format settings, GMC : No warppoints
    Format settings, Matrix : Default (MPEG)
    Codec ID : XVID
    Codec ID/Hint : XviD
    Duration : 1h 49mn
    Bit rate : 1 887 Kbps
    Width : 720 pixels
    Height : 400 pixels
    Display aspect ratio : 16:9
    Frame rate : 23.976 fps
    Color space : YUV
    Chroma subsampling : 4:2:0
    Bit depth : 8 bits
    Scan type : Progressive
    Compression mode : Lossy
    Bits/(Pixel*Frame) : 0.273
    Stream size : 1.45 GiB (71%)
    Writing library : XviD 1.2.1 (UTC 2008-12-04)
  Audio #1
    ID : 1
    Format : AC-3
    Format/Info : Audio Coding 3
    Mode extension : CM (complete main)
    Format settings, Endianness : Big
    Codec ID : 2000
    Duration : 1h 49mn
    Bit rate mode : Constant
    Bit rate : 384 Kbps
    Channel(s) : 6 channels
    Channel positions : Front: L C R, Side: L R, LFE
    Sampling rate : 48.0 KHz
    Bit depth : 16 bits
    Compression mode : Lossy
    Stream size : 302 MiB (14%)
    Alignment : Split accross interleaves
    Interleave, duration : 42 ms (1.00 video frame)
    Interleave, preload duration : 500 ms
  Audio #2
    ID : 2
    Format : AC-3
    Format/Info : Audio Coding 3
    Mode extension : CM (complete main)
    Format settings, Endianness : Big
    Codec ID : 2000
    Duration : 1h 49mn
    Bit rate mode : Constant
    Bit rate : 384 Kbps
    Channel(s) : 6 channels
    Channel positions : Front: L C R, Side: L R, LFE
    Sampling rate : 48.0 KHz
    Bit depth : 16 bits
    Compression mode : Lossy
    Stream size : 302 MiB (14%)
    Alignment : Split accross interleaves
    Interleave, duration : 42 ms (1.00 video frame)
    Interleave, preload duration : 500 ms

Скриншоты

Создавать темы 09-Сен-2015 23:43

[Профиль]  [ЛС] 
Показать сообщения:    
Ответить на тему

Текущее время: 12-Дек 15:12

Часовой пояс: UTC + 5



Вы не можете начинать темы
Вы не можете отвечать на сообщения
Вы не можете редактировать свои сообщения
Вы не можете удалять свои сообщения
Вы не можете голосовать в опросах
Вы не можете прикреплять файлы к сообщениям
Вы не можете скачивать файлы